<?xml version="1.0" standalone="no"?>
<!DOCTYPE svg PUBLIC "-//W3C//DTD SVG 1.1//EN" "http://www.w3.org/Graphics/SVG/1.1/DTD/svg11.dtd" >
<svg xmlns="http://www.w3.org/2000/svg" xmlns:xlink="http://www.w3.org/1999/xlink" version="1.1">
<metadata>
Created by FontForge 20150318 at Thu Jun 11 01:47:15 2015
 By uniteet7
From the WSI-Fonts Collection.  Copyright (c)1992 W.S.I.  All Rights Reserved.  Redistribution strictly prohibited.
</metadata>
<defs>
<font id="slicker" horiz-adv-x="1978" >
  <font-face 
    font-family="slicker"
    font-weight="400"
    font-stretch="normal"
    units-per-em="4096"
    panose-1="2 11 114 0 0 0 0 0 0 0"
    ascent="3276"
    descent="-820"
    x-height="2101"
    cap-height="2867"
    bbox="-377 -930 4927 3764"
    underline-thickness="70"
    underline-position="-65"
    unicode-range="U+0020-F002"
  />
<missing-glyph horiz-adv-x="3072" 
d="M512 0v2560h2048v-2560h-2048zM2494 66v2428h-1916v-2428h1916z" />
    <glyph glyph-name=".notdef" horiz-adv-x="3072" 
d="M512 0v2560h2048v-2560h-2048zM2494 66v2428h-1916v-2428h1916z" />
    <glyph glyph-name=".null" horiz-adv-x="0" 
 />
    <glyph glyph-name="nonmarkingreturn" horiz-adv-x="1229" 
 />
    <glyph glyph-name="space" unicode=" " horiz-adv-x="1229" 
 />
    <glyph glyph-name="exclam" unicode="!" horiz-adv-x="1237" 
d="M901 745h-577v2122h577v-2122zM909 8h-585v500h585v-500z" />
    <glyph glyph-name="quotedbl" unicode="&#x22;" horiz-adv-x="1307" 
d="M1151 1729h-352v1069h352v-1069zM516 1729h-352v1069h352v-1069z" />
    <glyph glyph-name="numbersign" unicode="#" horiz-adv-x="3043" 
d="M2941 2048l-139 -385h-537l-160 -475h549l-127 -393h-561l-291 -803h-405l278 803h-479l-299 -803h-393l266 799h-553l156 393h536l164 475h-565l139 385h565l291 807h402l-267 -803h480l278 803h414l-279 -803h537zM1855 1663h-491l-176 -487h500z" />
    <glyph glyph-name="dollar" unicode="$" horiz-adv-x="2974" 
d="M2793 860q0 -450 -221 -651q-225 -205 -745 -205h-258v-274h-213v274h-1069v500h1069v655l-221 4q-525 0 -742 205q-221 201 -221 639q0 451 250 659q250 205 741 205h193v254h213v-254h1069v-508h-1069v-696h405q332 0 529 -131q290 -197 290 -676zM1356 1667v696
q-307 0 -426 -53q-176 -78 -176 -311q0 -201 168 -287q110 -57 299 -57q61 0 98 4q16 0 37 8zM2212 860q0 135 -111 213q-135 94 -397 94h-82q-33 -4 -53 -8v-655q24 -4 37 -4q45 -4 94 -4q205 0 323 57q189 90 189 307z" />
    <glyph glyph-name="percent" unicode="%" horiz-adv-x="3645" 
d="M3531 770q0 -459 -226 -651q-172 -148 -503 -148q-332 0 -504 148q-225 192 -225 651q0 442 208 635q181 164 521 164q413 0 585 -234q144 -192 144 -565zM2499 2859l-1102 -2851h-291l1106 2851h287zM1573 2101q0 -463 -221 -651q-172 -147 -504 -147t-504 147
q-229 197 -229 651q0 443 209 635q180 164 524 164q409 0 582 -234q143 -196 143 -565zM3224 762q0 295 -127 434q-107 115 -283 115q-193 0 -291 -111q-123 -135 -123 -438q0 -549 414 -549q410 0 410 549zM1257 2101q0 295 -127 434q-106 115 -282 115q-193 0 -291 -110
q-123 -136 -123 -439q0 -549 414 -549q409 0 409 549z" />
    <glyph glyph-name="ampersand" unicode="&#x26;" horiz-adv-x="3183" 
d="M3056 1184h-349q-77 -340 -204 -570q-168 -307 -439 -471q-311 -192 -778 -192q-442 0 -700 147q-357 205 -357 668q0 213 86 356q82 140 291 287q-188 147 -246 225q-135 189 -135 488q0 336 230 540q229 205 618 205h950v-516h-794q-185 0 -307 -86q-127 -86 -127 -246
q0 -172 114 -262q111 -94 353 -94h90v-475h-90q-164 0 -263 -49q-172 -86 -172 -299q0 -160 131 -275q127 -119 332 -119q402 0 606 263q123 159 197 479h-393v475h1356v-479z" />
    <glyph glyph-name="quotesingle" unicode="'" horiz-adv-x="778" 
d="M618 2572q5 -32 5 -65q0 -115 -37 -217q-58 -156 -197 -283v377h-225v483h454v-295z" />
    <glyph glyph-name="parenleft" unicode="(" horiz-adv-x="1376" 
d="M1204 -500h-352q-315 459 -455 832q-155 413 -155 852q0 819 610 1683h352q-139 -278 -209 -446q-123 -295 -184 -561q-78 -332 -78 -680v-119q0 -295 66 -565q106 -430 405 -996z" />
    <glyph glyph-name="parenright" unicode=")" horiz-adv-x="1376" 
d="M1143 1184q0 -819 -611 -1684h-352q139 279 209 447q123 295 184 561q78 332 78 680v119q0 295 -65 565q-107 430 -406 995h352q316 -459 455 -831q156 -414 156 -852z" />
    <glyph glyph-name="asterisk" unicode="*" 
d="M1671 1933l-151 -278l-365 217l-4 -434h-328l-4 434l-360 -217l-156 278l381 213l-381 226l156 262l360 -201v434h332l4 -434l365 201l151 -262l-373 -226z" />
    <glyph glyph-name="plus" unicode="+" horiz-adv-x="3289" 
d="M2793 1004h-950v-996h-389v996h-954v385h954v987h389v-987h950v-385z" />
    <glyph glyph-name="comma" unicode="," horiz-adv-x="778" 
d="M618 205q5 -33 5 -66q0 -114 -37 -217q-58 -155 -197 -282v376h-225v484h454v-295z" />
    <glyph glyph-name="hyphen" unicode="-" horiz-adv-x="1532" 
d="M1421 836h-1315v483h1315v-483z" />
    <glyph glyph-name="period" unicode="." horiz-adv-x="778" 
d="M618 8h-454v484h454v-484z" />
    <glyph glyph-name="slash" unicode="/" horiz-adv-x="1659" 
d="M1663 2900l-1401 -3260h-266l1388 3260h279z" />
    <glyph glyph-name="zero" unicode="0" horiz-adv-x="3064" 
d="M2945 1434q0 -848 -438 -1201q-336 -270 -975 -270t-979 275q-438 356 -438 1196q0 811 409 1167q344 299 1008 299q381 0 647 -94q356 -127 541 -418q225 -352 225 -954zM2327 1434q4 36 4 61q0 328 -115 553q-201 393 -684 393q-377 0 -569 -205q-234 -245 -234 -806
q0 -496 197 -750q196 -258 606 -258q377 0 573 217q222 246 222 795z" />
    <glyph glyph-name="one" unicode="1" horiz-adv-x="1327" 
d="M1012 8h-606v2859h606v-2859z" />
    <glyph glyph-name="two" unicode="2" horiz-adv-x="3064" 
d="M2781 2064q0 -413 -192 -626q-209 -234 -656 -234h-536q-242 0 -357 -98q-118 -102 -118 -438v-176h1847v-484h-2474v860q0 439 213 627q233 209 803 209h483q143 0 237.5 86t94.5 233q0 185 -94 267q-111 94 -381 94h-1356v483h1622q410 0 627 -184q237 -201 237 -619z
" />
    <glyph glyph-name="three" unicode="3" horiz-adv-x="3064" 
d="M2703 770q0 -401 -262 -594q-225 -168 -614 -168h-1413v475h1159q229 0 352 82q119 82 119 279q0 184 -127 274q-127 86 -344 86h-934v475h917q230 0 340 74q132 86 132 279q0 360 -472 360h-1142v475h1351q549 0 758 -217q176 -184 176 -549q0 -188 -94 -352
q-98 -168 -287 -311q148 -78 246 -209q139 -189 139 -459z" />
    <glyph glyph-name="four" unicode="4" horiz-adv-x="3142" 
d="M2925 528h-377v-520h-598v520h-1823v553l1663 1786h754l4 -1855h377v-484zM1946 1016v1245l-1147 -1245h1147z" />
    <glyph glyph-name="five" unicode="5" horiz-adv-x="3064" 
d="M2793 852q0 -844 -987 -844h-1507v475h1376q213 0 312 70q122 86 122 299q0 197 -110.5 283t-323.5 86h-1376v1646h2351v-479h-1728v-688h995q381 0 631 -221q245 -226 245 -627z" />
    <glyph glyph-name="six" unicode="6" horiz-adv-x="3064" 
d="M2879 881q0 -455 -282 -676q-303 -238 -955 -238q-409 0 -659 86q-356 123 -549 430q-229 369 -229 1012q0 614 287 946q368 426 1220 426h1012v-475h-1028q-422 0 -578 -123q-192 -151 -237 -618h1020q471 0 712 -176q266 -193 266 -594zM2236 836q0 139 -86 233
q-98 107 -282 107h-987q0 -316 114 -480q185 -262 656 -262q311 0 450 103q135 98 135 299z" />
    <glyph glyph-name="seven" unicode="7" horiz-adv-x="3064" 
d="M2777 2388l-1700 -2380h-745l1757 2380h-1815v479h2503v-479z" />
    <glyph glyph-name="eight" unicode="8" horiz-adv-x="3064" 
d="M2884 766q0 -324 -177 -516q-221 -242 -704 -242h-938q-455 0 -676 209q-205 193 -205 537q0 295 115 454q102 140 307 230q-196 159 -282 303q-99 164 -99 368q0 299 115 459q213 299 811 299h770q487 0 704.5 -172t217.5 -553q0 -254 -82 -401q-82 -152 -291 -303
q217 -103 315 -254q99 -156 99 -418zM2224 2032q0 188 -119 274q-123 86 -344 86h-438q-471 0 -471 -360q0 -185 127 -267q123 -86 344 -86h438q217 0 328 70q135 86 135 283zM2224 844q0 360 -463 360h-442q-217 0 -328 -69q-143 -91 -143 -291q0 -361 471 -361h442
q463 0 463 361z" />
    <glyph glyph-name="nine" unicode="9" horiz-adv-x="3064" 
d="M2871 1516q0 -832 -393 -1188q-352 -320 -1114 -320h-1004v475h1016q451 0 652 230q159 184 159 508h-1007q-488 0 -717 176q-258 200 -258 676q0 446 385 659q315 172 840 172q364 0 606 -70q372 -106 577 -380q258 -345 258 -938zM2187 1696q0 332 -131 499
q-184 234 -647 234q-254 0 -405 -98q-156 -99 -156 -291q0 -152 90 -246q90 -98 274 -98h975z" />
    <glyph glyph-name="colon" unicode=":" horiz-adv-x="844" 
d="M639 1081h-446v484h446v-484zM639 8h-446v484h446v-484z" />
    <glyph glyph-name="semicolon" unicode=";" horiz-adv-x="844" 
d="M639 1081h-446v484h446v-484zM639 188q0 -196 -41 -307q-45 -110 -188 -241v368h-217v484h446v-304z" />
    <glyph glyph-name="less" unicode="&#x3c;" horiz-adv-x="2580" 
d="M2281 70l-2007 938v376l2007 930v-397l-1486 -717l1486 -733v-397z" />
    <glyph glyph-name="equal" unicode="=" horiz-adv-x="2875" 
d="M2548 1430h-2298v364h2298v-364zM2548 590h-2298v368h2298v-368z" />
    <glyph glyph-name="greater" unicode="&#x3e;" horiz-adv-x="2580" 
d="M2281 1008l-2007 -938v397l1495 733l-1495 717v397l2007 -930v-376z" />
    <glyph glyph-name="question" unicode="?" horiz-adv-x="2740" 
d="M2613 2003q0 -356 -209 -573q-225 -234 -635 -234h-503q-250 0 -361 -86q-110 -90 -110 -332v-57h-631v147q0 402 209 602q237 226 766 226h426q397 0 397 368q0 181 -111 250q-114 70 -360 70h-1385v483h1586q393 0 569 -94q352 -188 352 -770zM795 8h-623v492h623v-492
z" />
    <glyph glyph-name="at" unicode="@" horiz-adv-x="3162" 
d="M3019 1200q0 -385 -213 -684q-250 -348 -672 -348q-135 0 -217 45q-115 66 -115 217q-164 -254 -442 -254q-508 0 -508 520q0 279 135 521q197 352 602 352q238 0 365 -197l90 156h258l-234 -996v-8q0 -45 33 -73q33 -37 94 -37q172 0 336 180q213 233 213 598
q0 418 -303 655q-282 221 -721 221q-626 0 -1003 -450q-307 -369 -307 -807q0 -561 421 -840q320 -213 750 -213q274 0 504 70q225 70 446 229l119 -176q-311 -217 -606 -299q-209 -57 -463 -57q-582 0 -991 332q-447 360 -447 954q0 635 446.5 1065t1126.5 430
q447 0 811 -225q492 -303 492 -881zM1884 1094q4 16 4 32q0 66 -69 144q-86 94 -197 94q-225 0 -352 -246q-99 -192 -99 -422q0 -307 246 -307q144 0 246 106.5t139 258.5z" />
    <glyph glyph-name="A" unicode="A" horiz-adv-x="2859" 
d="M2937 8h-643l-266 688h-1246l-250 -688h-610l1188 2859h619zM1835 1196l-434 1131l-426 -1131h860z" />
    <glyph glyph-name="B" unicode="B" horiz-adv-x="2990" 
d="M2802 803q0 -377 -156 -553q-213 -242 -791 -242h-1556v2859h1454q496 0 721 -127q319 -180 319 -655q0 -225 -98 -369q-98 -147 -332 -278q234 -111 336 -254q103 -144 103 -381zM2163 2023q0 340 -402 340h-876v-671h864q197 0 295 65q119 82 119 266zM2171 844
q0 348 -402 348h-884v-688h872q193 0 295 69q119 82 119 271z" />
    <glyph glyph-name="C" unicode="C" horiz-adv-x="2585" 
d="M2433 8h-999q-615 0 -951 320q-368 348 -368 1056q0 689 278 1053q328 430 1057 430h983v-475h-975q-409 0 -577 -295q-127 -225 -127 -659q-4 -86 -4 -140q0 -344 102 -520q164 -286 606 -286h975v-484z" />
    <glyph glyph-name="D" unicode="D" horiz-adv-x="3047" 
d="M2916 1556q0 -938 -360 -1282q-279 -266 -950 -266h-1307v2859h1290q770 0 1090 -422q237 -315 237 -889zM2286 1438q0 614 -218 815q-143 131 -487 131l-696 -4v-1884l688 4q414 0 565 188q148 189 148 750z" />
    <glyph glyph-name="E" unicode="E" horiz-adv-x="2675" 
d="M2433 8h-999q-615 0 -951 320q-368 348 -368 1056q0 828 356 1176q311 307 979 307h983v-483h-975q-323 0 -491 -168q-172 -172 -172 -520h1638v-488h-1651q0 -397 189 -569q159 -147 487 -147h975v-484z" />
    <glyph glyph-name="F" unicode="F" horiz-adv-x="2683" 
d="M2568 1188h-1700v-1180h-589v1311q0 545 45 758q82 385 352 569q328 221 991 221h901v-483h-954q-393 0 -578 -201q-168 -180 -168 -516h1700v-479z" />
    <glyph glyph-name="G" unicode="G" horiz-adv-x="2933" 
d="M2724 8h-1315q-279 0 -442 41q-357 90 -570 352q-282 353 -282 983q0 664 250 1020q323 463 1085 463h1274v-483h-1274q-356 0 -516 -238q-164 -237 -164 -688q0 -450 139 -676q164 -266 541 -266h676v684h-791v496h1389v-1688z" />
    <glyph glyph-name="H" unicode="H" horiz-adv-x="2875" 
d="M2568 8h-577v1200h-1106v-1200h-586v2859h586v-1159h1106v1159h577v-2859z" />
    <glyph glyph-name="I" unicode="I" horiz-adv-x="1221" 
d="M909 8h-610v2859h610v-2859z" />
    <glyph glyph-name="J" unicode="J" horiz-adv-x="2212" 
d="M1946 1163q0 -676 -283 -925q-258 -230 -901 -230h-770v459h696q385 0 520 184q135 180 135 643v1573h603v-1704z" />
    <glyph glyph-name="K" unicode="K" horiz-adv-x="2658" 
d="M2720 8h-750l-1085 1426v-1426h-586v2859h586v-1376l1122 1376h705l-1135 -1401z" />
    <glyph glyph-name="L" unicode="L" horiz-adv-x="2204" 
d="M2171 8h-848q-602 0 -856 291q-234 266 -234 864v1704h578v-1573v-90v-69q0 -312 94 -451q148 -217 561 -217h705v-459z" />
    <glyph glyph-name="M" unicode="M" horiz-adv-x="3785" 
d="M3482 8h-525v2228l-737 -2228h-623l-761 2249v-2249h-537v2859h868l725 -2224l734 2224h856v-2859z" />
    <glyph glyph-name="N" unicode="N" horiz-adv-x="3072" 
d="M2781 8h-676l-1228 2171v-2171h-578v2859h750l1171 -2064v2064h561v-2859z" />
    <glyph glyph-name="O" unicode="O" horiz-adv-x="3056" 
d="M2945 1438q0 -811 -434 -1184q-357 -307 -979 -307q-324 0 -561 73q-373 115 -586 410q-270 373 -270 1016q0 614 221 967q184 290 541 417q266 95 647 95q606 0 942 -234q282 -197 397 -569q82 -271 82 -684zM2310 1434q0 561 -225 807q-189 204 -557 204
q-365 0 -574 -250q-209 -253 -209 -749q0 -471 115 -688q176 -336 668 -336q430 0 618 278q164 242 164 734z" />
    <glyph glyph-name="P" unicode="P" horiz-adv-x="2933" 
d="M2810 1937q0 -565 -426 -790q-262 -139 -655 -139h-74q-21 0 -41 4h-729v-1004h-586v2859h1290q668 0 946 -221q275 -221 275 -709zM2163 1937q0 242 -140 336q-143 90 -446 90h-692v-852h725q553 0 553 426z" />
    <glyph glyph-name="Q" unicode="Q" horiz-adv-x="3056" 
d="M3113 8h-705l-90 98q-151 -53 -254 -77q-319 -78 -634 -78q-549 0 -869 254q-262 209 -368 586q-78 278 -78 659q0 627 270 995q352 475 1131 475q385 0 655 -98q348 -127 541 -430q229 -360 229 -954q0 -287 -49 -508q-62 -266 -201 -504zM2306 1430q0 557 -229 806
q-193 213 -549 213q-357 0 -549 -217q-229 -254 -229 -802q0 -463 208 -738q205 -274 570 -274q446 0 631 299q147 237 147 713z" />
    <glyph glyph-name="R" unicode="R" horiz-adv-x="2966" 
d="M2871 8h-647l-631 1122h-712v-1122h-582v2859h1462q492 0 725 -184q262 -205 262 -676q0 -319 -127 -512q-143 -217 -438 -287zM2163 1999q0 209 -131 286.5t-418 77.5h-729v-737h733q287 0 385 45q160 74 160 328z" />
    <glyph glyph-name="S" unicode="S" horiz-adv-x="2990" 
d="M2826 860q0 -373 -160 -569q-229 -283 -827 -283h-1581v500h1487q233 0 340 61q131 78 131 262q0 189 -102 271q-107 78 -332 78h-701q-467 0 -696 188q-246 201 -246 639q0 447 242 655q237 205 745 205h1561v-500h-1466q-476 0 -476 -385q0 -159 107 -237
q106 -82 283 -82h786q418 0 606 -111q299 -176 299 -692z" />
    <glyph glyph-name="T" unicode="T" horiz-adv-x="2449" 
d="M2441 2372h-913v-2364h-615v2364h-905v487h2433v-487z" />
    <glyph glyph-name="U" unicode="U" horiz-adv-x="3035" 
d="M2740 1130v-143q0 -422 -176 -647q-287 -365 -1040 -365q-840 0 -1102 414q-127 201 -127 655v1823h577v-1720q-4 -82 -4 -135q0 -250 99 -385q151 -209 557 -209q360 0 499 160q140 159 140 569v1720h577v-1737z" />
    <glyph glyph-name="V" unicode="V" horiz-adv-x="2773" 
d="M2900 2867l-1176 -2859h-606l-1229 2859h652l864 -2150l881 2150h614z" />
    <glyph glyph-name="W" unicode="W" horiz-adv-x="4370" 
d="M4375 2867l-869 -2859h-721l-598 2130h-16l-533 -2130h-712l-938 2859h618l651 -2203h17l553 2203h696l647 -2232l611 2232h594z" />
    <glyph glyph-name="X" unicode="X" horiz-adv-x="2556" 
d="M2580 8h-696l-602 996l-635 -996h-692l983 1430l-950 1429h684l585 -909l582 909h676l-905 -1392z" />
    <glyph glyph-name="Y" unicode="Y" horiz-adv-x="2449" 
d="M2597 2867l-1081 -1597v-1262h-590l-4 1262l-1065 1597h655l700 -1098l709 1098h676z" />
    <glyph glyph-name="Z" unicode="Z" horiz-adv-x="2904" 
d="M2609 8h-2376v512l1614 1843h-1614v504h2376v-504l-1593 -1863h1593v-492z" />
    <glyph glyph-name="bracketleft" unicode="[" horiz-adv-x="1376" 
d="M1266 -500h-959v3367h959v-442h-492v-2495h492v-430z" />
    <glyph glyph-name="backslash" unicode="\" horiz-adv-x="1659" 
d="M1663 -360h-270l-1397 3260h274z" />
    <glyph glyph-name="bracketright" unicode="]" horiz-adv-x="1376" 
d="M1061 -500h-955v430h492v2495h-492v442h955v-3367z" />
    <glyph glyph-name="asciicircum" unicode="^" horiz-adv-x="3133" 
d="M2662 1765h-438l-721 713l-725 -713h-434l913 1078h488z" />
    <glyph glyph-name="underscore" unicode="_" 
d="M1991 -696h-1983v286h1983v-286z" />
    <glyph glyph-name="grave" unicode="`" horiz-adv-x="1364" 
d="M1180 2367h-258l-660 541h549z" />
    <glyph glyph-name="a" unicode="a" horiz-adv-x="2511" 
d="M2253 8h-1467q-303 0 -471 164t-168 451q0 348 197 499q197 148 627 148h729q0 237 -103 323q-102 86 -397 86h-913v422h1118q336 0 512 -94q336 -180 336 -688v-1311zM1704 414v454h-651q-168 0 -238 -32q-102 -50 -102 -197q0 -119 77.5 -172t221.5 -53h692z" />
    <glyph glyph-name="b" unicode="b" horiz-adv-x="2417" 
d="M2310 1077q0 -389 -188 -671q-267 -398 -824 -398h-1048v2859h536v-766h480q503 0 773.5 -262t270.5 -762zM1745 1049q0 290 -115 430q-143 176 -504 176h-340v-1221h336q344 0 496 180q127 152 127 435z" />
    <glyph glyph-name="c" unicode="c" horiz-adv-x="2085" 
d="M1946 8h-734q-467 0 -749 225q-340 271 -340 816q0 634 389 884q258 168 700 168h734v-446h-697q-323 0 -450 -168q-111 -148 -111 -438q0 -353 180 -496q140 -111 439 -111h639v-434z" />
    <glyph glyph-name="d" unicode="d" horiz-adv-x="2408" 
d="M2163 8h-1053q-389 0 -659 209q-353 275 -353 827q0 529 295 807q271 254 725 254h500l4 762h541v-2859zM1618 438v1213h-295q-377 0 -516 -140q-143 -143 -143 -520q0 -274 106 -393q143 -160 528 -160h320z" />
    <glyph glyph-name="e" unicode="e" horiz-adv-x="2085" 
d="M1962 8h-795q-512 0 -778 282.5t-266 766.5q0 622 381 876q250 168 663 168h795v-422h-721q-283 0 -397 -86q-115 -90 -115 -327h1233v-430h-1241q0 -230 106 -320q103 -90 410 -90h725v-418z" />
    <glyph glyph-name="f" unicode="f" horiz-adv-x="1552" 
d="M1516 1692h-529v-1684h-557v1688h-389v405h389v127v70q-4 33 -4 61q0 234 82 340q131 168 487 168h521v-385h-222q-172 0 -241.5 -61.5t-69.5 -184.5v-135h533v-409z" />
    <glyph glyph-name="g" unicode="g" horiz-adv-x="2408" 
d="M2187 82q0 -414 -184 -623t-598 -209h-1073v414h975q335 0 335 340h-507q-394 0 -648 176q-381 262 -381 869q0 524 283 790q279 262 803 262h995v-2019zM1642 426v1241h-294q-390 0 -545 -172q-135 -147 -135 -463q0 -299 118 -438q144 -168 500 -168h356z" />
    <glyph glyph-name="h" unicode="h" horiz-adv-x="2380" 
d="M2138 8h-541v1266q0 201 -77 287q-82 81 -303 81h-443v-1634h-524v2859h524v-762h479q394 0 598 -131q287 -184 287 -639v-1327z" />
    <glyph glyph-name="i" unicode="i" horiz-adv-x="1053" 
d="M803 2359h-553v508h553v-508zM803 8h-553v2093h553v-2093z" />
    <glyph glyph-name="j" unicode="j" horiz-adv-x="1053" 
d="M803 2359h-553v508h553v-508zM803 98q0 -430 -189 -639q-192 -213 -606 -213l-270 4v431h229q164 0 230 114q53 94 53 328v1978h553v-2003z" />
    <glyph glyph-name="k" unicode="k" horiz-adv-x="2380" 
d="M2372 8h-725l-848 1020v-1020h-537v2859h537v-1773l893 1007h680l-955 -1020z" />
    <glyph glyph-name="l" unicode="l" horiz-adv-x="1036" 
d="M795 8h-553v2859h553v-2859z" />
    <glyph glyph-name="m" unicode="m" horiz-adv-x="3469" 
d="M3207 8h-532v1258q0 221 -74 303q-78 78 -291 78h-311v-1639h-561v1634h-656v-1634h-532v2093h2097q414 0 614 -143q246 -176 246 -623v-1327z" />
    <glyph glyph-name="n" unicode="n" horiz-adv-x="2372" 
d="M2138 8h-541v1258v65q0 144 -49 205q-86 106 -323 106h-443v-1634h-532v2093h1024q450 0 639 -143q225 -172 225 -623v-1327z" />
    <glyph glyph-name="o" unicode="o" horiz-adv-x="2408" 
d="M2302 1057q0 -500 -295 -795q-299 -299 -803 -299q-499 0 -798.5 291t-299.5 803q0 614 398 889q282 196 700 196q402 0 692 -205q406 -286 406 -880zM1745 1049q0 278 -135 454q-148 193 -402 193q-200 0 -356 -152q-188 -180 -188 -495q0 -250 139 -435
q155 -208 397 -208q250 0 406 200q139 180 139 443z" />
    <glyph glyph-name="p" unicode="p" horiz-adv-x="2417" 
d="M2310 1032q0 -500 -262 -762t-782 -262h-488v-758h-528v2851h1048q451 0 721 -262q291 -283 291 -807zM1745 1069q0 295 -98 422q-136 172 -512 172h-353v-1221h209q455 0 619 168q135 140 135 459z" />
    <glyph glyph-name="q" unicode="q" horiz-adv-x="2408" 
d="M2163 -750h-537v758h-475q-446 0 -725 230q-324 266 -324 786q0 430 234 729q270 348 774 348h1053v-2851zM1626 442v1221h-344q-352 0 -496 -160q-122 -139 -122 -438q0 -283 118 -434q148 -189 500 -189h344z" />
    <glyph glyph-name="r" unicode="r" horiz-adv-x="1864" 
d="M1737 1237h-508v160q0 196 -37 254q-41 57 -156 57q-12 4 -45 4h-57h-86t-66 -4v-1700h-532v2093h917q320 0 435 -110q135 -131 135 -496v-258z" />
    <glyph glyph-name="s" unicode="s" horiz-adv-x="2347" 
d="M2187 696q0 -315 -147 -499q-152 -189 -418 -189h-1405v418h1151q299 0 299 221q0 213 -299 213h-479q-70 -4 -115 -4q-242 0 -377 86q-217 139 -217 496q0 663 725 663h1172v-422h-1057q-295 0 -295 -184q4 -20 4 -33q16 -184 266 -184h504q307 0 471 -107
q217 -143 217 -475z" />
    <glyph glyph-name="t" unicode="t" horiz-adv-x="1638" 
d="M1544 8h-491q-299 0 -463 172q-168 168 -168 475v1041h-381v405h381v766h536v-766h586v-405h-586v-860q0 -177 58 -291q53 -115 180 -115h348v-422z" />
    <glyph glyph-name="u" unicode="u" horiz-adv-x="2380" 
d="M2114 8h-1029q-438 0 -630 156q-222 176 -222 606v1331h529v-1290q0 -176 69 -258q87 -102 295 -102h455v1650h533v-2093z" />
    <glyph glyph-name="v" unicode="v" horiz-adv-x="2408" 
d="M2388 2101l-922 -2093h-569l-877 2093h590l590 -1519l615 1519h573z" />
    <glyph glyph-name="w" unicode="w" horiz-adv-x="3453" 
d="M3494 2101l-705 -2093h-610l-463 1462l-450 -1462h-586l-725 2093h553l463 -1499l467 1499h569l475 -1499l459 1499h553z" />
    <glyph glyph-name="x" unicode="x" horiz-adv-x="2187" 
d="M2175 2101l-766 -1061l750 -1032h-627l-447 602l-438 -602h-618l753 1049l-762 1044h619l446 -639l467 639h623z" />
    <glyph glyph-name="y" unicode="y" horiz-adv-x="2380" 
d="M2114 57q0 -389 -181 -589q-192 -218 -590 -218h-1073v414h971q340 0 340 344h-496q-446 0 -634 156q-218 180 -218 639v1298h521v-1249q0 -213 45 -283q78 -118 327 -118h455v1650h533v-2044z" />
    <glyph glyph-name="z" unicode="z" horiz-adv-x="2310" 
d="M2122 8h-1938v443l1229 1200h-1229v450h1938v-454l-1229 -1196h1229v-443z" />
    <glyph glyph-name="braceleft" unicode="{" 
d="M1700 -795l-197 -4q-422 0 -561 152q-123 135 -123 508v483q0 283 -94 389q-98 103 -381 103h-37v401h37q266 0 373 102q102 99 102 398v483q0 352 123 492q148 167 569 167h189v-397h-176q-127 0 -189 -102q-61 -103 -61 -295v-467q0 -279 -78 -393q-82 -119 -340 -181
q234 -90 270 -114q148 -103 148 -479v-467q0 -177 53 -283.5t164 -106.5q8 -8 49 -8q33 0 74 4h86v-385z" />
    <glyph glyph-name="bar" unicode="|" 
d="M1184 -930h-389v3977h389v-3977z" />
    <glyph glyph-name="braceright" unicode="}" 
d="M1700 844h-37q-266 0 -369 -99q-106 -102 -106 -401v-483q0 -353 -123 -492q-147 -168 -569 -168h-189v398h176q127 0 188.5 102t61.5 295v467q0 278 82 397q78 115 336 176q-233 90 -270 115q-148 102 -148 479v467q0 176 -53 282.5t-164 106.5q-8 8 -49 8h-82
q-41 -4 -78 -4v385l197 4q422 0 561 -151q123 -135 123 -508v-483q0 -283 98 -385q94 -107 377 -107h37v-401z" />
    <glyph glyph-name="asciitilde" unicode="~" horiz-adv-x="2560" 
d="M2355 2679q-188 -619 -733 -619q-164 0 -475 57.5t-377 57.5q-233 0 -332 -193h-319q102 332 250 463q163 148 462 148q193 0 459 -62q266 -61 402 -61q123 0 204 53q78 49 136 156h323z" />
    <glyph glyph-name="nonbreakingspace" unicode="&#xa0;" horiz-adv-x="1229" 
 />
    <glyph glyph-name="exclamdown" unicode="&#xa1;" horiz-adv-x="1237" 
d="M909 2367h-585v500h585v-500zM901 8h-577v2114h577v-2114z" />
    <glyph glyph-name="cent" unicode="&#xa2;" horiz-adv-x="1622" 
d="M1548 598h-418v-246h-217v246q-122 0 -217 20q-254 54 -409 213q-221 226 -221 627q0 484 282 701q213 163 565 163v250h217v-250h418v-356h-418v-1012h418v-356zM913 954v1012q-208 -24 -303 -143q-94 -119 -94 -365q0 -209 82 -323q98 -136 315 -181z" />
    <glyph glyph-name="sterling" unicode="&#xa3;" horiz-adv-x="2695" 
d="M2585 8h-2470v475h508v766h-508v402h512v487q0 356 221 537q237 192 729 192h770v-483h-672q-278 0 -385 -107q-86 -86 -86 -286v-340h692v-402h-688v-762h1377v-479z" />
    <glyph glyph-name="currency" unicode="&#xa4;" horiz-adv-x="2392" 
d="M2261 860l-193 -205l-393 398q-213 -144 -475 -144t-471 144l-397 -398l-193 205l389 397q-57 91 -90 177q-53 143 -53 299q0 254 143 471l-389 397l193 197l397 -385q221 139 471 139q246 0 475 -139l393 385l193 -197l-385 -397q135 -217 135 -475q0 -250 -135 -472z
M1745 1729q0 225 -156 385q-155 159 -385 159q-209 0 -373 -155q-167 -160 -167 -389q0 -213 159 -377q160 -164 381 -164q205 0 373 159.5t168 381.5z" />
    <glyph glyph-name="yen" unicode="&#xa5;" horiz-adv-x="2449" 
d="M2597 2867l-655 -975h483v-229h-639l-184 -262h823v-234h-905v-1159h-598v1159h-881v234h803l-172 262h-631v229h471l-655 975h655l700 -1098l709 1098h676z" />
    <glyph glyph-name="brokenbar" unicode="&#xa6;" 
d="M1184 1319h-389v1470h389v-1470zM1184 -672h-389v1458h389v-1458z" />
    <glyph glyph-name="section" unicode="&#xa7;" 
d="M1905 328q0 -324 -189 -508q-192 -189 -581 -189h-934v451h790q357 0 357 250q0 102 -78 167.5t-189 65.5h-266q-409 0 -594 168q-160 144 -160 418q0 147 45 246q62 135 213 205q-249 180 -249 569q0 291 168 475q204 221 606 221h901v-459h-762q-176 0 -266 -53
q-90 -57 -90 -201q0 -225 270 -225h217q471 0 655 -180q136 -135 136 -393q0 -275 -234 -455q139 -94 197 -283q37 -122 37 -290zM1401 1303q0 98 -103 143q-102 41 -241 41q-25 4 -70 4q-160 0 -278.5 -82t-118.5 -197q0 -122 155 -168q103 -28 304 -28q352 0 352 287z" />
    <glyph glyph-name="dieresis" unicode="&#xa8;" 
d="M1556 2392h-454v492h454v-492zM872 2392h-454v492h454v-492z" />
    <glyph glyph-name="copyright" unicode="&#xa9;" horiz-adv-x="3289" 
d="M3072 1430q0 -566 -397 -992q-418 -446 -1028 -446q-639 0 -1053 487q-369 434 -369 951q0 225 115 520q152 389 430 626q360 308 877 308q626 0 1040 -451q385 -422 385 -1003zM2859 1438q0 471 -348 835q-365 381 -856 381q-471 0 -836 -348q-381 -364 -381 -868
q0 -492 353 -852q348 -365 864 -365q475 0 827 328q377 352 377 889zM2355 1155q-28 -246 -188 -401q-189 -181 -516 -181q-365 0 -566 238q-204 238 -204 639q0 340 204 582q226 266 582 266q262 0 447 -144q184 -143 221 -393h-348q-17 127 -111 213q-98 82 -213 82
q-188 0 -295 -160q-111 -163 -111 -458q0 -258 86 -414q103 -180 295 -180q312 0 365 311h352z" />
    <glyph glyph-name="ordfeminine" unicode="&#xaa;" horiz-adv-x="1888" 
d="M1692 1409h-1106q-221 0 -344 123q-127 119 -127 344q0 188 118 291q144 123 496 123h549q0 164 -86 229q-90 61 -295 61h-680v287h844q287 0 438 -106q193 -135 193 -443v-909zM1278 1688v319h-492q-135 0 -192 -29q-62 -32 -62 -135q0 -86 66 -119q61 -36 156 -36h524z
" />
    <glyph glyph-name="guillemotleft" unicode="&#xab;" horiz-adv-x="2494" 
d="M2294 1745l-692 -688l667 -688h-577l-639 688l671 688h570zM1352 1745l-684 -688l667 -688h-590l-639 688l672 688h574z" />
    <glyph glyph-name="logicalnot" unicode="&#xac;" horiz-adv-x="4915" 
d="M4760 -340h-4600v3133h4600v-3133zM4370 1044v74h-65q-86 0 -119 20.5t-33 110.5v1024v82q-4 41 -4 78q0 98 41 131q37 29 180 29v73h-655v-73q152 0 184 -29q33 -29 33 -151v-99v-1057q0 -90 -37 -114q-41 -25 -123 -25h-57v-74h655zM4674 111q0 204 -320 270
q-319 65 -319 205q0 86 65 139q62 49 152 49q65 0 127 -29q61 -32 110 -90q13 -57 17 -69q4 -25 4 -74l65 -4q0 70 13 156q12 81 16 127q-172 53 -328 53q-180 0 -291 -74q-131 -90 -131 -262q0 -217 320 -279q315 -61 315 -209q0 -102 -74 -155q-73 -58 -180 -58
q-172 0 -233.5 61.5t-61.5 229.5h-65q0 -45 -8 -151q-9 -111 -9 -123q0 -41 95 -66q90 -28 241 -28q193 0 324 90q156 106 156 291zM3854 754h-352q0 98 4 200q4 99 17 189q114 94 172 180q73 111 73 238q0 360 -471 401t-471 303q0 156 110.5 242t274.5 86q78 0 180 -29
q103 -33 156 -78q21 -45 21 -139v-82h73q0 123 9 176q4 53 28 152q-217 86 -454 86q-254 0 -418 -119q-185 -135 -185 -381q0 -356 476 -401q471 -45 471 -308q0 -172 -131.5 -262t-311.5 -90q-106 0 -213 33q-143 45 -172 119l-4 196h-78v-135v-57q0 -82 -12 -164
q209 -86 434 -86q111 0 209 25q21 -164 21 -295q-78 -45 -185 -78v-49h185v-643q0 -254 262 -254q32 0 73 8t74 16l111 140l-33 45q-53 -62 -131 -62t-119 57q-45 58 -45 218v53v442q33 0 107 4q69 4 102 4q61 0 119 -12zM3285 -246v70q-119 0 -152 20q-32 21 -32 95
q4 81 4 135v377q0 393 -381 393q-103 0 -205 -62q-102 -61 -176 -155q4 73 4 110q0 66 -20 107q-95 -41 -189 -66q-94 -24 -192 -24v-70q45 4 69 4q53 0 90 -12q33 -17 33 -58v-704q0 -45 -20 -70q-21 -24 -86 -24q-58 4 -86 4v-70h589l-4 70q-123 0 -159 37q-41 33 -41 127
q0 24 4 98q4 70 4 119v114q0 189 41 263q65 114 258 114q155 0 217 -94q49 -78 49 -254v-221v-49q0 -180 -16 -324h397zM2785 2593v73h-487v-73q57 0 131 -8q74 -13 74 -45q0 -103 -156 -631q-82 -267 -164 -533l-475 1303h-57l-500 -1290q-66 274 -131.5 565t-114.5 536
q-12 21 -12 33v8q0 41 61 54q62 8 90 8h50v73h-586v-73q106 0 135 -25q25 -28 49 -147q41 -176 90 -361q115 -430 131 -610q-94 0 -237 -131q-148 -135 -193 -238q-16 -41 -20 -86q-8 -45 -8 -123v-122l-164 -82v-41l164 16l4 -627q0 -131 -33 -159q-37 -33 -172 -33v-70
h635v70h-70q-78 0 -102 8q-66 25 -66 160l4 655h144q73 -4 147 -4l21 102l-9 9h-303v147v103q0 131 37 204q33 74 144 74q69 0 118 -37l45 -221h119q111 328 234 639q90 233 266 635q37 -107 237 -631q152 -401 222 -643h123q61 250 221 811q188 655 245 741q29 17 119 17z
M1995 328q0 229 -148 372q-147 144 -381 144q-249 0 -417 -148q-168 -147 -168 -397q0 -242 139 -405.5t377 -163.5q262 0 430 168t168 430zM1778 229q0 -168 -66 -282q-82 -140 -242 -140q-188 0 -286 201q-78 156 -78 369q0 160 78 278q78 119 229 119q197 0 291 -184
q74 -144 74 -361z" />
    <glyph glyph-name="minus" unicode="&#xad;" horiz-adv-x="1532" 
d="M1421 836h-1315v483h1315v-483z" />
    <glyph glyph-name="registered" unicode="&#xae;" horiz-adv-x="3289" 
d="M3072 1430q0 -558 -397 -984q-422 -454 -1028 -454q-598 0 -1008 434q-414 430 -414 1004q0 716 496 1122q405 332 926 332q245 0 532 -115q377 -152 602 -434q291 -369 291 -905zM2859 1417q0 525 -352.5 881t-851.5 356q-488 0 -852.5 -356t-364.5 -860
q0 -553 418 -910q361 -307 766 -307q504 0 872 361q365 356 365 835zM2351 664h-414l-303 655h-209v-655h-364v1593h614q283 0 451 -82q225 -111 225 -360q0 -320 -352 -435zM1962 1794q0 131 -102 184q-103 54 -279 54h-151v-484h151q184 0 270 45q111 58 111 201z" />
    <glyph glyph-name="macron" unicode="&#xaf;" 
d="M1970 2662h-1962v385h1962v-385z" />
    <glyph glyph-name="degree" unicode="&#xb0;" horiz-adv-x="1389" 
d="M1176 2454q0 -205 -132 -349q-135 -147 -331 -147q-205 0 -348 135q-148 131 -148 328q0 205 135 352q131 143 328 143q205 0 352 -131q144 -135 144 -331zM995 2445q0 123 -90 209q-94 82 -225 82q-123 0 -205 -90q-86 -94 -86 -225q0 -123 94 -205q90 -86 222 -86
q122 0 208 94q82 90 82 221z" />
    <glyph glyph-name="plusminus" unicode="&#xb1;" horiz-adv-x="3289" 
d="M2793 1372h-950v-635h-389v635h-958v377h958v635h389v-635h950v-377zM2793 8h-2297v369h2297v-369z" />
    <glyph glyph-name="twosuperior" unicode="&#xb2;" horiz-adv-x="1884" 
d="M1708 2367q0 -237 -135 -368q-135 -135 -426 -135h-356q-205 0 -271 -99q-45 -65 -45 -221v-102h1225v-287h-1639v508q0 262 148 381q143 115 524 115h320q98 0 159 49q62 49 62 139q0 107 -70 160q-69 53 -246 53h-897v283h1074q274 0 426 -111q147 -115 147 -365z" />
    <glyph glyph-name="threesuperior" unicode="&#xb3;" horiz-adv-x="1679" 
d="M1536 1618q0 -238 -172 -352q-147 -99 -401 -99h-930v283h762q151 0 233 49q78 49 78 164q0 111 -82 164q-82 49 -229 49h-615v278h602q156 0 234 45.5t78 163.5q0 213 -312 213h-749v279h889q278 0 417 -74q197 -106 197 -377q0 -114 -61 -209q-66 -98 -189 -184
q94 -41 160 -123q90 -114 90 -270z" />
    <glyph glyph-name="acute" unicode="&#xb4;" horiz-adv-x="1364" 
d="M1122 2945l-663 -541h-254l368 541h549z" />
    <glyph glyph-name="mu" unicode="&#xb5;" horiz-adv-x="2408" 
d="M2277 2122l-372 -2114l-504 4l37 217l-17 4q-69 -143 -155 -204q-107 -78 -267 -78h-20q-131 0 -221 61q-66 45 -160 164l-176 -1020h-528l512 2966h536l-147 -844q-13 -57 -25 -197q-16 -139 -16 -192q0 -217 57 -340q74 -156 242 -156q225 0 360 234q103 180 148 495
l180 1000h536z" />
    <glyph glyph-name="paragraph" unicode="&#xb6;" 
d="M1888 2675h-209v-2667h-282v2667h-320v-2667h-286v1528q-361 41 -533 209t-172 467q0 336 229 512q205 160 521 160h1052v-209z" />
    <glyph glyph-name="periodcentered" unicode="&#xb7;" horiz-adv-x="864" 
d="M586 1307q0 -66 -45 -111q-49 -49 -115 -49t-111 45t-45 115q0 69 45 114t111 45t115 -45q45 -49 45 -114z" />
    <glyph glyph-name="cedilla" unicode="&#xb8;" 
d="M1389 -455q0 -143 -91 -229q-94 -86 -307 -86q-94 0 -184 12q-94 13 -258 58v188q98 -25 151 -33q164 -33 234 -33q78 0 115 17q65 29 65 106q0 99 -225 99h-53v340h168v-152q385 0 385 -287z" />
    <glyph glyph-name="onesuperior" unicode="&#xb9;" horiz-adv-x="688" 
d="M541 1147h-394v1704h394v-1704z" />
    <glyph glyph-name="ordmasculine" unicode="&#xba;" horiz-adv-x="1806" 
d="M1724 2138q0 -323 -192 -528q-217 -234 -627 -234q-356 0 -586 189q-229 188 -229 454q0 459 225 676q205 197 590 197q340 0 565 -180q254 -205 254 -574zM1315 2134q0 193 -111 328q-114 131 -291 131q-188 0 -303 -119q-114 -119 -114 -344q0 -201 122 -324
q119 -127 283 -127q189 0 303 127q111 123 111 328z" />
    <glyph glyph-name="guillemotright" unicode="&#xbb;" horiz-adv-x="2494" 
d="M2302 1057l-672 -688h-569l688 688l-664 688h582zM1360 1057l-672 -688h-573l692 688l-668 688h582z" />
    <glyph glyph-name="onequarter" unicode="&#xbc;" horiz-adv-x="3428" 
d="M3133 270h-229v-295h-369v295h-1118v316l1020 1016h463l4 -1053h229v-279zM1925 2859l-1094 -2851h-282l1106 2851h270zM541 1147h-394v1704h394v-1704zM2531 549v708l-700 -708h700z" />
    <glyph glyph-name="onehalf" unicode="&#xbd;" horiz-adv-x="3404" 
d="M3281 1200q0 -237 -135 -369q-135 -135 -426 -135h-357q-204 0 -270 -98q-45 -66 -45 -221v-103h1225v-286h-1639v508q0 262 148 381q143 114 524 114h320q98 0 159 49q62 50 62 140q0 106 -70 159q-70 54 -246 54h-897v282h1073q275 0 426 -110q148 -115 148 -365z
M1950 2834l-1094 -2850h-283l1106 2850h271zM541 1147h-394v1704h394v-1704z" />
    <glyph glyph-name="threequarters" unicode="&#xbe;" horiz-adv-x="4264" 
d="M4055 319h-229v-331h-369v331h-1118v349l1020 1130h463l4 -1175h229v-304zM2589 2847l-1094 -2851h-283l1106 2851h271zM1536 1618q0 -238 -172 -352q-147 -99 -401 -99h-930v283h762q151 0 233 49q78 49 78 164q0 111 -82 164q-82 49 -229 49h-615v278h602
q156 0 234 45.5t78 163.5q0 213 -312 213h-749v279h889q278 0 417 -74q197 -106 197 -377q0 -114 -61 -209q-66 -98 -189 -184q94 -41 160 -123q90 -114 90 -270zM3453 627v790l-700 -790h700z" />
    <glyph glyph-name="questiondown" unicode="&#xbf;" horiz-adv-x="2740" 
d="M2548 2376h-623v491h623v-491zM2613 8h-1585q-393 0 -569 94q-353 189 -353 770q0 357 209 574q226 233 635 233h504q250 0 352 82q119 94 119 336v57h631v-147q0 -401 -209 -602q-238 -225 -766 -225h-426q-397 0 -397 -369q0 -180 114 -250q111 -69 357 -69h1384v-484z
" />
    <glyph glyph-name="Agrave" unicode="&#xc0;" horiz-adv-x="2859" 
d="M2937 8h-643l-266 688h-1246l-250 -688h-610l1188 2859h619zM1835 1196l-434 1131l-426 -1131h860zM1524 3043h-258l-660 541h549z" />
    <glyph glyph-name="Aacute" unicode="&#xc1;" horiz-adv-x="2859" 
d="M2937 8h-643l-266 688h-1246l-250 -688h-610l1188 2859h619zM1835 1196l-434 1131l-426 -1131h860zM2273 3613l-663 -541h-254l368 541h549z" />
    <glyph glyph-name="Acircumflex" unicode="&#xc2;" horiz-adv-x="2859" 
d="M2937 8h-643l-266 688h-1246l-250 -688h-610l1188 2859h619zM1835 1196l-434 1131l-426 -1131h860zM2015 3018h-258l-340 283l-344 -283h-250l361 541h467z" />
    <glyph glyph-name="Atilde" unicode="&#xc3;" horiz-adv-x="2859" 
d="M2937 8h-643l-266 688h-1246l-250 -688h-610l1188 2859h619zM1835 1196l-434 1131l-426 -1131h860zM2007 3515q-102 -439 -397 -439q-78 0 -192 25q-267 57 -271 57q-127 0 -180 -135h-172q53 225 139 327.5t246 102.5q111 0 258 -41q148 -45 209 -45q127 0 184 148h176z
" />
    <glyph glyph-name="Adieresis" unicode="&#xc4;" horiz-adv-x="2859" 
d="M2937 8h-643l-266 688h-1246l-250 -688h-610l1188 2859h619zM1835 1196l-434 1131l-426 -1131h860zM2002 3031h-454v492h454v-492zM1318 3031h-454v492h454v-492z" />
    <glyph glyph-name="Aring" unicode="&#xc5;" horiz-adv-x="2859" 
d="M2937 8h-643l-266 688h-1246l-250 -688h-610l1188 2859h619zM1835 1196l-434 1131l-426 -1131h860zM1794 3391q0 -160 -107 -270q-106 -111 -266 -111t-270.5 106.5t-110.5 266.5t107 270q106 111 266 111t270 -107q111 -106 111 -266zM1601 3403q0 74 -57 123t-131 49
t-123 -57t-49 -131t57 -123t131 -49t123 57q49 58 49 131z" />
    <glyph glyph-name="AE" unicode="&#xc6;" horiz-adv-x="4415" 
d="M4178 8h-959q-520 0 -720 111q-226 123 -463 577h-1245l-250 -688h-611l1188 2859h635l262 -708q185 385 443 540q278 168 778 168h942v-483h-971q-676 0 -676 -684l1647 4v-492l-1647 -4q0 -336 119 -499q156 -217 557 -217h971v-484zM1896 1196l-401 1110h-94
l-410 -1110h905z" />
    <glyph glyph-name="Ccedilla" unicode="&#xc7;" horiz-adv-x="2585" 
d="M2433 8h-975v-90q385 0 385 -287q0 -143 -90 -229q-94 -86 -307 -86q-94 0 -184 12q-95 13 -258 58v188q98 -25 151 -33q164 -33 234 -33q77 0 114 17q66 29 66 106q0 99 -226 99h-53v282q-540 0 -848 340q-327 361 -327 1032q0 689 278 1053q328 430 1057 430h983v-475
h-975q-409 0 -577 -295q-127 -225 -127 -659q-4 -86 -4 -140q0 -344 102 -520q164 -286 606 -286h975v-484z" />
    <glyph glyph-name="Egrave" unicode="&#xc8;" horiz-adv-x="2675" 
d="M2433 8h-999q-615 0 -951 320q-368 348 -368 1056q0 828 356 1176q311 307 979 307h983v-483h-975q-323 0 -491 -168q-172 -172 -172 -520h1638v-488h-1651q0 -397 189 -569q159 -147 487 -147h975v-484zM1856 3026h-258l-660 541h549z" />
    <glyph glyph-name="Eacute" unicode="&#xc9;" horiz-adv-x="2675" 
d="M2433 8h-999q-615 0 -951 320q-368 348 -368 1056q0 828 356 1176q311 307 979 307h983v-483h-975q-323 0 -491 -168q-172 -172 -172 -520h1638v-488h-1651q0 -397 189 -569q159 -147 487 -147h975v-484zM2330 3547l-663 -541h-254l368 541h549z" />
    <glyph glyph-name="Ecircumflex" unicode="&#xca;" horiz-adv-x="2675" 
d="M2433 8h-999q-615 0 -951 320q-368 348 -368 1056q0 828 356 1176q311 307 979 307h983v-483h-975q-323 0 -491 -168q-172 -172 -172 -520h1638v-488h-1651q0 -397 189 -569q159 -147 487 -147h975v-484zM2146 3006h-258l-340 283l-344 -283h-250l361 541h467z" />
    <glyph glyph-name="Edieresis" unicode="&#xcb;" horiz-adv-x="2675" 
d="M2433 8h-999q-615 0 -951 320q-368 348 -368 1056q0 828 356 1176q311 307 979 307h983v-483h-975q-323 0 -491 -168q-172 -172 -172 -520h1638v-488h-1651q0 -397 189 -569q159 -147 487 -147h975v-484zM2076 3039h-454v492h454v-492zM1392 3039h-454v492h454v-492z" />
    <glyph glyph-name="Igrave" unicode="&#xcc;" horiz-adv-x="1221" 
d="M909 8h-610v2859h610v-2859zM844 3010h-258l-660 541h549z" />
    <glyph glyph-name="Iacute" unicode="&#xcd;" horiz-adv-x="1221" 
d="M909 8h-610v2859h610v-2859zM1237 3568l-663 -541h-254l368 541h549z" />
    <glyph glyph-name="Icircumflex" unicode="&#xce;" horiz-adv-x="1221" 
d="M909 8h-610v2859h610v-2859zM1196 3014h-258l-340 283l-344 -283h-250l361 541h467z" />
    <glyph glyph-name="Idieresis" unicode="&#xcf;" horiz-adv-x="1221" 
d="M909 8h-610v2859h610v-2859zM1159 3039h-454v492h454v-492zM475 3039h-454v492h454v-492z" />
    <glyph glyph-name="Eth" unicode="&#xd0;" horiz-adv-x="3047" 
d="M2916 1556q0 -938 -360 -1282q-279 -266 -950 -266h-1307v1295h-266v311h266v1253h1290q770 0 1090 -422q237 -315 237 -889zM2286 1438q0 614 -218 815q-143 131 -487 131l-696 -4v-766h700v-311h-700v-807l688 4q414 0 565 188q148 189 148 750z" />
    <glyph glyph-name="Ntilde" unicode="&#xd1;" horiz-adv-x="3072" 
d="M2781 8h-676l-1228 2171v-2171h-578v2859h750l1171 -2064v2064h561v-2859zM2162 3502q-102 -439 -397 -439q-78 0 -192 25q-267 57 -271 57q-127 0 -180 -135h-172q53 225 139 327.5t246 102.5q111 0 258 -41q148 -45 209 -45q127 0 184 148h176z" />
    <glyph glyph-name="Ograve" unicode="&#xd2;" horiz-adv-x="3056" 
d="M2945 1438q0 -811 -434 -1184q-357 -307 -979 -307q-324 0 -561 73q-373 115 -586 410q-270 373 -270 1016q0 614 221 967q184 290 541 417q266 95 647 95q606 0 942 -234q282 -197 397 -569q82 -271 82 -684zM2310 1434q0 561 -225 807q-189 204 -557 204
q-365 0 -574 -250q-209 -253 -209 -749q0 -471 115 -688q176 -336 668 -336q430 0 618 278q164 242 164 734zM1680 3035h-258l-660 541h549z" />
    <glyph glyph-name="Oacute" unicode="&#xd3;" horiz-adv-x="3056" 
d="M2945 1438q0 -811 -434 -1184q-357 -307 -979 -307q-324 0 -561 73q-373 115 -586 410q-270 373 -270 1016q0 614 221 967q184 290 541 417q266 95 647 95q606 0 942 -234q282 -197 397 -569q82 -271 82 -684zM2310 1434q0 561 -225 807q-189 204 -557 204
q-365 0 -574 -250q-209 -253 -209 -749q0 -471 115 -688q176 -336 668 -336q430 0 618 278q164 242 164 734zM2191 3563l-663 -541h-254l368 541h549z" />
    <glyph glyph-name="Ocircumflex" unicode="&#xd4;" horiz-adv-x="3056" 
d="M2945 1438q0 -811 -434 -1184q-357 -307 -979 -307q-324 0 -561 73q-373 115 -586 410q-270 373 -270 1016q0 614 221 967q184 290 541 417q266 95 647 95q606 0 942 -234q282 -197 397 -569q82 -271 82 -684zM2310 1434q0 561 -225 807q-189 204 -557 204
q-365 0 -574 -250q-209 -253 -209 -749q0 -471 115 -688q176 -336 668 -336q430 0 618 278q164 242 164 734zM2068 3014h-258l-340 283l-344 -283h-250l361 541h467z" />
    <glyph glyph-name="Otilde" unicode="&#xd5;" horiz-adv-x="3056" 
d="M2945 1438q0 -811 -434 -1184q-357 -307 -979 -307q-324 0 -561 73q-373 115 -586 410q-270 373 -270 1016q0 614 221 967q184 290 541 417q266 95 647 95q606 0 942 -234q282 -197 397 -569q82 -271 82 -684zM2310 1434q0 561 -225 807q-189 204 -557 204
q-365 0 -574 -250q-209 -253 -209 -749q0 -471 115 -688q176 -336 668 -336q430 0 618 278q164 242 164 734zM2097 3515q-102 -439 -397 -439q-78 0 -192 25q-267 57 -271 57q-127 0 -180 -135h-172q53 225 139 327.5t246 102.5q111 0 258 -41q148 -45 209 -45
q127 0 184 148h176z" />
    <glyph glyph-name="Odieresis" unicode="&#xd6;" horiz-adv-x="3056" 
d="M2945 1438q0 -811 -434 -1184q-357 -307 -979 -307q-324 0 -561 73q-373 115 -586 410q-270 373 -270 1016q0 614 221 967q184 290 541 417q266 95 647 95q606 0 942 -234q282 -197 397 -569q82 -271 82 -684zM2310 1434q0 561 -225 807q-189 204 -557 204
q-365 0 -574 -250q-209 -253 -209 -749q0 -471 115 -688q176 -336 668 -336q430 0 618 278q164 242 164 734zM2064 3035h-454v492h454v-492zM1380 3035h-454v492h454v-492z" />
    <glyph glyph-name="multiply" unicode="&#xd7;" horiz-adv-x="2560" 
d="M2236 492l-270 -271l-696 701l-684 -684l-271 266l680 692l-692 700l275 275l696 -701l672 684l266 -270l-672 -684z" />
    <glyph glyph-name="Oslash" unicode="&#xd8;" horiz-adv-x="3056" 
d="M2945 1438q0 -811 -434 -1184q-357 -307 -979 -307q-254 0 -442 41q-295 65 -504 233l-213 -254l-324 -4l357 434q-140 181 -213 434q-78 250 -78 615q0 614 221 967q184 290 541 417q266 95 647 95q278 0 475 -41q192 -41 356 -127l144 172l352 8l-275 -336
q222 -201 308 -541q61 -241 61 -622zM1995 2318q-94 66 -213 99q-119 28 -254 28q-365 0 -574 -250q-209 -253 -209 -749q0 -229 17 -336q12 -111 49 -221zM2310 1434q0 442 -139 684l-1233 -1475q94 -106 238 -164q139 -57 352 -57q430 0 618 278q164 242 164 734z" />
    <glyph glyph-name="Ugrave" unicode="&#xd9;" horiz-adv-x="3035" 
d="M2740 1130v-143q0 -422 -176 -647q-287 -365 -1040 -365q-840 0 -1102 414q-127 201 -127 655v1823h577v-1720q-4 -82 -4 -135q0 -250 99 -385q151 -209 557 -209q360 0 499 160q140 159 140 569v1720h577v-1737zM1753 3014h-258l-660 541h549z" />
    <glyph glyph-name="Uacute" unicode="&#xda;" horiz-adv-x="3035" 
d="M2740 1130v-143q0 -422 -176 -647q-287 -365 -1040 -365q-840 0 -1102 414q-127 201 -127 655v1823h577v-1720q-4 -82 -4 -135q0 -250 99 -385q151 -209 557 -209q360 0 499 160q140 159 140 569v1720h577v-1737zM2285 3572l-663 -541h-254l368 541h549z" />
    <glyph glyph-name="Ucircumflex" unicode="&#xdb;" horiz-adv-x="3035" 
d="M2740 1130v-143q0 -422 -176 -647q-287 -365 -1040 -365q-840 0 -1102 414q-127 201 -127 655v1823h577v-1720q-4 -82 -4 -135q0 -250 99 -385q151 -209 557 -209q360 0 499 160q140 159 140 569v1720h577v-1737zM2142 3010h-258l-340 283l-344 -283h-250l361 541h467z
" />
    <glyph glyph-name="Udieresis" unicode="&#xdc;" horiz-adv-x="3035" 
d="M2740 1130v-143q0 -422 -176 -647q-287 -365 -1040 -365q-840 0 -1102 414q-127 201 -127 655v1823h577v-1720q-4 -82 -4 -135q0 -250 99 -385q151 -209 557 -209q360 0 499 160q140 159 140 569v1720h577v-1737zM2142 3027h-454v492h454v-492zM1458 3027h-454v492h454
v-492z" />
    <glyph glyph-name="Yacute.0" unicode="&#xdd;" horiz-adv-x="2449" 
d="M2597 2867l-1081 -1597v-1262h-590l-4 1262l-1065 1597h655l700 -1098l709 1098h676zM2003 3559l-663 -541h-254l368 541h549z" />
    <glyph glyph-name="Thorn" unicode="&#xde;" horiz-adv-x="2941" 
d="M2810 1483q0 -488 -385 -688q-283 -148 -811 -148h-733v-639h-582v2859h586v-553h774q532 0 803 -155q348 -201 348 -676zM2163 1483q0 159 -131 250q-131 86 -402 86h-49h-696v-672h729q549 0 549 336z" />
    <glyph glyph-name="germandbls" unicode="&#xdf;" horiz-adv-x="2724" 
d="M2515 688q0 -299 -127 -471q-156 -209 -475 -209h-713v418h467q152 0 234 49q98 62 98 193q0 127 -82 200q-45 37 -205 111l-438 205q-94 49 -131 127q-41 78 -41 172q0 168 86 258q49 49 209 143l266 164q78 49 90 61q45 50 45 136q0 127 -57.5 176t-200.5 49l-242 12
q-311 0 -311 -209v-2265h-557v1696h-389v397h389v127q-4 86 -4 135q0 230 82 336q131 168 487 168h570q311 0 475 -90q258 -139 258 -508q0 -143 -41 -241q-45 -99 -160 -177l-434 -258q-29 -16 -53 -32q-21 -13 -21 -29v-8q13 -33 82 -62l385 -168q254 -114 357 -250
q102 -135 102 -356z" />
    <glyph glyph-name="agrave" unicode="&#xe0;" horiz-adv-x="2511" 
d="M2253 8h-1467q-303 0 -471 164t-168 451q0 348 197 499q197 148 627 148h729q0 237 -103 323q-102 86 -397 86h-913v422h1118q336 0 512 -94q336 -180 336 -688v-1311zM1704 414v454h-651q-168 0 -238 -32q-102 -50 -102 -197q0 -119 77.5 -172t221.5 -53h692zM1426 2293
h-258l-660 541h549z" />
    <glyph glyph-name="aacute" unicode="&#xe1;" horiz-adv-x="2511" 
d="M2253 8h-1467q-303 0 -471 164t-168 451q0 348 197 499q197 148 627 148h729q0 237 -103 323q-102 86 -397 86h-913v422h1118q336 0 512 -94q336 -180 336 -688v-1311zM1704 414v454h-651q-168 0 -238 -32q-102 -50 -102 -197q0 -119 77.5 -172t221.5 -53h692zM1847 2834
l-663 -541h-254l368 541h549z" />
    <glyph glyph-name="acircumflex" unicode="&#xe2;" horiz-adv-x="2511" 
d="M2253 8h-1467q-303 0 -471 164t-168 451q0 348 197 499q197 148 627 148h729q0 237 -103 323q-102 86 -397 86h-913v422h1118q336 0 512 -94q336 -180 336 -688v-1311zM1704 414v454h-651q-168 0 -238 -32q-102 -50 -102 -197q0 -119 77.5 -172t221.5 -53h692zM1782 2318
h-258l-340 283l-344 -283h-250l361 541h467z" />
    <glyph glyph-name="atilde" unicode="&#xe3;" horiz-adv-x="2511" 
d="M2253 8h-1467q-303 0 -471 164t-168 451q0 348 197 499q197 148 627 148h729q0 237 -103 323q-102 86 -397 86h-913v422h1118q336 0 512 -94q336 -180 336 -688v-1311zM1704 414v454h-651q-168 0 -238 -32q-102 -50 -102 -197q0 -119 77.5 -172t221.5 -53h692zM1806 2786
q-102 -439 -397 -439q-78 0 -192 25q-267 57 -271 57q-127 0 -180 -135h-172q53 225 139 327.5t246 102.5q111 0 258 -41q148 -45 209 -45q127 0 184 148h176z" />
    <glyph glyph-name="adieresis" unicode="&#xe4;" horiz-adv-x="2511" 
d="M2253 8h-1467q-303 0 -471 164t-168 451q0 348 197 499q197 148 627 148h729q0 237 -103 323q-102 86 -397 86h-913v422h1118q336 0 512 -94q336 -180 336 -688v-1311zM1704 414v454h-651q-168 0 -238 -32q-102 -50 -102 -197q0 -119 77.5 -172t221.5 -53h692zM1753 2331
h-454v492h454v-492zM1069 2331h-454v492h454v-492z" />
    <glyph glyph-name="aring" unicode="&#xe5;" horiz-adv-x="2511" 
d="M2253 8h-1467q-303 0 -471 164t-168 451q0 348 197 499q197 148 627 148h729q0 237 -103 323q-102 86 -397 86h-913v422h1118q336 0 512 -94q336 -180 336 -688v-1311zM1704 414v454h-651q-168 0 -238 -32q-102 -50 -102 -197q0 -119 77.5 -172t221.5 -53h692zM1528 2654
q0 -160 -107 -270q-106 -111 -266 -111t-270.5 106.5t-110.5 266.5t107 270q106 111 266 111t270 -107q111 -106 111 -266zM1335 2666q0 74 -57 123t-131 49t-123 -57t-49 -131t57 -123t131 -49t123 57q49 58 49 131z" />
    <glyph glyph-name="ae" unicode="&#xe6;" horiz-adv-x="3686" 
d="M3486 20h-795q-123 0 -229 21q-111 16 -209 57v-90h-1467q-303 0 -471 164t-168 451q0 348 197 499q197 148 627 148h729q0 237 -103 323q-102 86 -397 86h-913v422h1118q184 0 287 -20q192 -37 323 -152q152 107 320 148q168 37 356 37h795v-422h-721q-283 0 -398 -86
q-114 -90 -114 -328h1233v-430h-1241q0 -230 106 -320q103 -90 410 -90h725v-418zM1704 414v454h-651q-168 0 -238 -32q-102 -50 -102 -197q0 -119 77.5 -172t221.5 -53h692z" />
    <glyph glyph-name="ccedilla" unicode="&#xe7;" horiz-adv-x="2085" 
d="M1946 8h-631v-69q307 0 307 -222q0 -114 -74 -180q-73 -65 -241 -65q-115 0 -189 12q-106 29 -164 41v147q45 -12 74 -16q172 -37 234 -37q57 0 86 12q53 25 53 86q0 74 -176 74h-41v217q-451 0 -729 230q-332 274 -332 811q0 634 389 884q258 168 700 168h734v-446h-697
q-323 0 -450 -168q-111 -148 -111 -438q0 -353 180 -496q140 -111 439 -111h639v-434z" />
    <glyph glyph-name="egrave" unicode="&#xe8;" horiz-adv-x="2085" 
d="M1962 8h-795q-512 0 -778 282.5t-266 766.5q0 622 381 876q250 168 663 168h795v-422h-721q-283 0 -397 -86q-115 -90 -115 -327h1233v-430h-1241q0 -230 106 -320q103 -90 410 -90h725v-418zM1499 2318h-258l-660 541h549z" />
    <glyph glyph-name="eacute" unicode="&#xe9;" horiz-adv-x="2085" 
d="M1962 8h-795q-512 0 -778 282.5t-266 766.5q0 622 381 876q250 168 663 168h795v-422h-721q-283 0 -397 -86q-115 -90 -115 -327h1233v-430h-1241q0 -230 106 -320q103 -90 410 -90h725v-418zM1982 2871l-663 -541h-254l368 541h549z" />
    <glyph glyph-name="ecircumflex" unicode="&#xea;" horiz-adv-x="2085" 
d="M1962 8h-795q-512 0 -778 282.5t-266 766.5q0 622 381 876q250 168 663 168h795v-422h-721q-283 0 -397 -86q-115 -90 -115 -327h1233v-430h-1241q0 -230 106 -320q103 -90 410 -90h725v-418zM1851 2334h-258l-340 283l-344 -283h-250l361 541h467z" />
    <glyph glyph-name="edieresis" unicode="&#xeb;" horiz-adv-x="2085" 
d="M1962 8h-795q-512 0 -778 282.5t-266 766.5q0 622 381 876q250 168 663 168h795v-422h-721q-283 0 -397 -86q-115 -90 -115 -327h1233v-430h-1241q0 -230 106 -320q103 -90 410 -90h725v-418zM1732 2367h-454v492h454v-492zM1048 2367h-454v492h454v-492z" />
    <glyph glyph-name="igrave" unicode="&#xec;" horiz-adv-x="1053" 
d="M803 8h-553v2093h553v-2093zM746 2277h-258l-660 541h549z" />
    <glyph glyph-name="iacute" unicode="&#xed;" horiz-adv-x="1053" 
d="M803 8h-553v2093h553v-2093zM1188 2839l-663 -541h-254l368 541h549z" />
    <glyph glyph-name="icircumflex" unicode="&#xee;" horiz-adv-x="1053" 
d="M803 8h-553v2093h553v-2093zM1134 2310h-258l-340 283l-344 -283h-250l361 541h467z" />
    <glyph glyph-name="idieresis" unicode="&#xef;" horiz-adv-x="1053" 
d="M803 8h-553v2093h553v-2093zM1093 2306h-454v492h454v-492zM409 2306h-454v492h454v-492z" />
    <glyph glyph-name="Yacute" unicode="&#xf0;" horiz-adv-x="2417" 
d="M2302 1040q0 -413 -246 -708q-303 -365 -856 -365q-475 0 -770 250q-324 275 -324 782q0 459 283 742q266 266 647 266q193 0 422 -86q-176 283 -364 422l-688 -180l-70 233l520 144l-414 327l574 4l332 -213l708 176l58 -229l-512 -131q286 -250 442 -500
q258 -418 258 -934zM1745 987q0 262 -115 414q-135 180 -418 180q-225 0 -385 -160q-163 -164 -163 -426q0 -233 131 -397q147 -184 409 -184q316 0 447 204q94 144 94 369z" />
    <glyph glyph-name="ntilde" unicode="&#xf1;" horiz-adv-x="2372" 
d="M2138 8h-541v1258v65q0 144 -49 205q-86 106 -323 106h-443v-1634h-532v2093h1024q450 0 639 -143q225 -172 225 -623v-1327zM1769 2773q-102 -439 -397 -439q-78 0 -192 25q-267 57 -271 57q-127 0 -180 -135h-172q53 225 139 327.5t246 102.5q111 0 258 -41
q148 -45 209 -45q127 0 184 148h176z" />
    <glyph glyph-name="ograve" unicode="&#xf2;" horiz-adv-x="2408" 
d="M2302 1057q0 -500 -295 -795q-299 -299 -803 -299q-499 0 -798.5 291t-299.5 803q0 614 398 889q282 196 700 196q402 0 692 -205q406 -286 406 -880zM1745 1049q0 278 -135 454q-148 193 -402 193q-200 0 -356 -152q-188 -180 -188 -495q0 -250 139 -435
q155 -208 397 -208q250 0 406 200q139 180 139 443zM1217 2330h-258l-660 541h549z" />
    <glyph glyph-name="oacute" unicode="&#xf3;" horiz-adv-x="2408" 
d="M2302 1057q0 -500 -295 -795q-299 -299 -803 -299q-499 0 -798.5 291t-299.5 803q0 614 398 889q282 196 700 196q402 0 692 -205q406 -286 406 -880zM1745 1049q0 278 -135 454q-148 193 -402 193q-200 0 -356 -152q-188 -180 -188 -495q0 -250 139 -435
q155 -208 397 -208q250 0 406 200q139 180 139 443zM2068 2884l-663 -541h-254l368 541h549z" />
    <glyph glyph-name="ocircumflex" unicode="&#xf4;" horiz-adv-x="2408" 
d="M2302 1057q0 -500 -295 -795q-299 -299 -803 -299q-499 0 -798.5 291t-299.5 803q0 614 398 889q282 196 700 196q402 0 692 -205q406 -286 406 -880zM1745 1049q0 278 -135 454q-148 193 -402 193q-200 0 -356 -152q-188 -180 -188 -495q0 -250 139 -435
q155 -208 397 -208q250 0 406 200q139 180 139 443zM1843 2342h-258l-340 283l-344 -283h-250l361 541h467z" />
    <glyph glyph-name="otilde" unicode="&#xf5;" horiz-adv-x="2408" 
d="M2302 1057q0 -500 -295 -795q-299 -299 -803 -299q-499 0 -798.5 291t-299.5 803q0 614 398 889q282 196 700 196q402 0 692 -205q406 -286 406 -880zM1745 1049q0 278 -135 454q-148 193 -402 193q-200 0 -356 -152q-188 -180 -188 -495q0 -250 139 -435
q155 -208 397 -208q250 0 406 200q139 180 139 443zM1818 2823q-102 -439 -397 -439q-78 0 -192 25q-267 57 -271 57q-127 0 -180 -135h-172q53 225 139 327.5t246 102.5q111 0 258 -41q148 -45 209 -45q127 0 184 148h176z" />
    <glyph glyph-name="odieresis" unicode="&#xf6;" horiz-adv-x="2408" 
d="M2302 1057q0 -500 -295 -795q-299 -299 -803 -299q-499 0 -798.5 291t-299.5 803q0 614 398 889q282 196 700 196q402 0 692 -205q406 -286 406 -880zM1745 1049q0 278 -135 454q-148 193 -402 193q-200 0 -356 -152q-188 -180 -188 -495q0 -250 139 -435
q155 -208 397 -208q250 0 406 200q139 180 139 443zM1777 2331h-454v492h454v-492zM1093 2331h-454v492h454v-492z" />
    <glyph glyph-name="divide" unicode="&#xf7;" horiz-adv-x="3289" 
d="M1880 1524h-455v483h455v-483zM2789 1008h-2293v376h2293v-376zM1872 385h-455v483h455v-483z" />
    <glyph glyph-name="oslash" unicode="&#xf8;" horiz-adv-x="2417" 
d="M2302 1032q0 -430 -242 -713q-295 -348 -884 -348q-156 0 -287 37q-131 33 -279 107l-123 -140h-331l250 287q-95 139 -189 279q-115 221 -115 512q0 577 402 864q299 213 676 213q229 0 336 -16q106 -21 299 -127l122 143h336l-245 -303q274 -340 274 -795zM1528 1634
q-119 54 -152 66q-82 29 -176 29q-242 0 -401 -173q-164 -176 -164 -466q0 -218 98 -414zM1769 1044q0 160 -69 381l-795 -950q70 -45 148 -69q73 -25 164 -25q196 0 339 119q213 176 213 544z" />
    <glyph glyph-name="ugrave" unicode="&#xf9;" horiz-adv-x="2380" 
d="M2114 8h-1029q-438 0 -630 156q-222 176 -222 606v1331h529v-1290q0 -176 69 -258q87 -102 295 -102h455v1650h533v-2093zM1254 2355h-258l-660 541h549z" />
    <glyph glyph-name="uacute" unicode="&#xfa;" horiz-adv-x="2380" 
d="M2114 8h-1029q-438 0 -630 156q-222 176 -222 606v1331h529v-1290q0 -176 69 -258q87 -102 295 -102h455v1650h533v-2093zM2044 2896l-663 -541h-254l368 541h549z" />
    <glyph glyph-name="ucircumflex" unicode="&#xfb;" horiz-adv-x="2380" 
d="M2114 8h-1029q-438 0 -630 156q-222 176 -222 606v1331h529v-1290q0 -176 69 -258q87 -102 295 -102h455v1650h533v-2093zM1769 2318h-258l-340 283l-344 -283h-250l361 541h467z" />
    <glyph glyph-name="udieresis" unicode="&#xfc;" horiz-adv-x="2380" 
d="M2114 8h-1029q-438 0 -630 156q-222 176 -222 606v1331h529v-1290q0 -176 69 -258q87 -102 295 -102h455v1650h533v-2093zM1716 2343h-454v492h454v-492zM1032 2343h-454v492h454v-492z" />
    <glyph glyph-name="yacute" unicode="&#xfd;" horiz-adv-x="1970" 
d="M2114 57q0 -389 -181 -589q-192 -218 -590 -218h-1073v414h971q340 0 340 344h-496q-446 0 -634 156q-218 180 -218 639v1298h521v-1249q0 -213 45 -283q78 -118 327 -118h455v1650h533v-2044zM2060 2892l-663 -541h-254l368 541h549z" />
    <glyph glyph-name="thorn" unicode="&#xfe;" horiz-adv-x="2417" 
d="M2310 1110q0 -528 -250 -807q-262 -295 -794 -295l-484 -4l4 -758l-544 4v3617h544l-4 -762l516 -4q426 0 721 -270q291 -275 291 -721zM1745 1069q0 352 -160 483q-135 111 -450 111h-349l-4 -1217l398 5q364 0 491 229q74 135 74 389z" />
    <glyph glyph-name="ydieresis" unicode="&#xff;" horiz-adv-x="2380" 
d="M2114 57q0 -389 -181 -589q-192 -218 -590 -218h-1073v414h971q340 0 340 344h-496q-446 0 -634 156q-218 180 -218 639v1298h521v-1249q0 -213 45 -283q78 -118 327 -118h455v1650h533v-2044zM1720 2326h-454v492h454v-492zM1036 2326h-454v492h454v-492z" />
    <glyph glyph-name="dotlessi" unicode="&#x131;" horiz-adv-x="1053" 
d="M803 8h-553v2093h553v-2093z" />
    <glyph glyph-name="Lslash" unicode="&#x141;" horiz-adv-x="2204" 
d="M2183 20h-848q-602 0 -856 291q-233 267 -233 865v340l-479 -275l-144 250l623 356v1032h577v-700l488 283l143 -246l-631 -365v-544v-90v-70q0 -311 95 -451q147 -217 561 -217h704v-459z" />
    <glyph glyph-name="lslash" unicode="&#x142;" horiz-adv-x="1036" 
d="M1487 2220l-692 -401v-1811h-553v1495l-459 -266l-143 246l602 348v1036h553v-717l548 320z" />
    <glyph glyph-name="OE" unicode="&#x152;" horiz-adv-x="4841" 
d="M4547 20h-1000q-307 0 -545 82q-237 78 -413 250q-185 -209 -459 -307q-279 -98 -598 -98q-324 0 -561 73q-373 115 -586 410q-270 373 -270 1016q0 614 221 967q184 290 541 417q266 95 647 95t651 -86q266 -86 434 -250q168 151 414 221q242 69 541 69h983v-483h-975
q-324 0 -492 -168q-172 -172 -172 -520h1639v-487h-1651q0 -398 188 -570q160 -147 488 -147h975v-484zM2310 1434q0 561 -225 807q-189 204 -557 204q-365 0 -574 -250q-209 -253 -209 -749q0 -471 115 -688q176 -336 668 -336q430 0 618 278q164 242 164 734z" />
    <glyph glyph-name="oe" unicode="&#x153;" horiz-adv-x="3797" 
d="M3523 8h-795q-242 0 -422 61.5t-319 184.5q-283 -291 -783 -291q-573 0 -864 373q-234 299 -234 721q0 491 312 790q307 295 786 295q205 0 385 -53q230 -70 398 -221q151 135 372 192q160 41 369 41h795v-422h-721q-283 0 -398 -86q-114 -90 -114 -327h1233v-430h-1242
q0 -230 107 -320q102 -90 410 -90h725v-418zM1745 1049q0 278 -135 454q-148 193 -402 193q-200 0 -356 -152q-188 -180 -188 -495q0 -250 139 -435q155 -208 397 -208q250 0 406 200q139 180 139 443z" />
    <glyph glyph-name="Scaron" unicode="&#x160;" horiz-adv-x="2990" 
d="M2826 860q0 -373 -160 -569q-229 -283 -827 -283h-1581v500h1487q233 0 340 61q131 78 131 262q0 189 -102 271q-107 78 -332 78h-701q-467 0 -696 188q-246 201 -246 639q0 447 242 655q237 205 745 205h1561v-500h-1466q-476 0 -476 -385q0 -159 107 -237
q106 -82 283 -82h786q418 0 606 -111q299 -176 299 -692zM2118 3547l-365 -545h-467l-364 545l254 4l344 -291l340 291z" />
    <glyph glyph-name="scaron" unicode="&#x161;" horiz-adv-x="2347" 
d="M2187 696q0 -315 -147 -499q-152 -189 -418 -189h-1405v418h1151q299 0 299 221q0 213 -299 213h-479q-70 -4 -115 -4q-242 0 -377 86q-217 139 -217 496q0 663 725 663h1172v-422h-1057q-295 0 -295 -184q4 -20 4 -33q16 -184 266 -184h504q307 0 471 -107
q217 -143 217 -475zM1848 2810l-365 -545h-467l-364 545l254 4l344 -291l340 291z" />
    <glyph glyph-name="Ydieresis" unicode="&#x178;" horiz-adv-x="2449" 
d="M1704 3068h-418v450h418v-450zM1073 3068h-414v450h414v-450zM2597 2867l-1081 -1597v-1262h-590l-4 1262l-1065 1597h655l700 -1098l709 1098h676z" />
    <glyph glyph-name="Zcaron" unicode="&#x17d;" horiz-adv-x="2904" 
d="M2609 8h-2376v512l1614 1843h-1614v504h2376v-504l-1593 -1863h1593v-492zM1921 3559l-365 -545h-467l-364 545l254 4l344 -291l340 291z" />
    <glyph glyph-name="zcaron" unicode="&#x17e;" horiz-adv-x="2310" 
d="M2122 8h-1938v443l1229 1200h-1229v450h1938v-454l-1229 -1196h1229v-443zM1798 2830l-365 -545h-467l-364 545l254 4l344 -291l340 291z" />
    <glyph glyph-name="florin" unicode="&#x192;" horiz-adv-x="3056" 
d="M2458 2425h-209q-193 0 -242 -33t-78 -172l-94 -467h483v-463h-577l-266 -1376q-82 -418 -299 -541q-136 -78 -504 -78h-250v451h283q65 0 126 82q62 78 95 246l245 1216h-421v463h512l114 565q58 287 135 381q140 168 484 168h459z" />
    <glyph glyph-name="circumflex" unicode="&#x2c6;" 
d="M1585 2367h-258l-340 283l-344 -283h-250l361 541h467z" />
    <glyph glyph-name="caron" unicode="&#x2c7;" horiz-adv-x="1364" 
d="M1270 2908l-365 -545h-467l-364 545l254 4l344 -291l340 291z" />
    <glyph glyph-name="breve" unicode="&#x2d8;" horiz-adv-x="1364" 
d="M1274 2908q-57 -291 -172 -405q-135 -136 -430 -136q-266 0 -402 115q-135 115 -200 426h241q70 -237 361 -237q311 0 364 237h238z" />
    <glyph glyph-name="ring" unicode="&#x2da;" horiz-adv-x="1298" 
d="M1012 2396q0 -160 -107 -270q-106 -111 -266 -111t-270.5 106.5t-110.5 266.5t107 270q106 111 266 111t270 -107q111 -106 111 -266zM819 2408q0 74 -57 123t-131 49t-123 -57t-49 -131t57 -123t131 -49t123 57q49 58 49 131z" />
    <glyph glyph-name="tilde" unicode="&#x2dc;" 
d="M1597 2884q-102 -439 -397 -439q-78 0 -192 25q-267 57 -271 57q-127 0 -180 -135h-172q53 225 139 327.5t246 102.5q111 0 258 -41q148 -45 209 -45q127 0 184 148h176z" />
    <glyph glyph-name="endash" unicode="&#x2013;" 
d="M1970 836h-1962v483h1962v-483z" />
    <glyph glyph-name="emdash" unicode="&#x2014;" horiz-adv-x="3953" 
d="M3949 1319l-5 -483h-3936v483h3941z" />
    <glyph glyph-name="quoteleft" unicode="&#x2018;" horiz-adv-x="848" 
d="M614 2376h-217v-369q-147 143 -192 262q-49 119 -49 320v270h458v-483z" />
    <glyph glyph-name="quoteright" unicode="&#x2019;" horiz-adv-x="848" 
d="M614 2589q0 -213 -41 -324q-45 -111 -200 -258v369h-217v483h458v-270z" />
    <glyph glyph-name="quotesinglbase" unicode="&#x201a;" horiz-adv-x="848" 
d="M623 221q0 -213 -41 -323q-45 -111 -201 -258v368h-217v484h459v-271z" />
    <glyph glyph-name="quotedblleft" unicode="&#x201c;" horiz-adv-x="1466" 
d="M1303 2392h-218v-369q-147 144 -192 263q-49 118 -49 319v270h459v-483zM614 2376h-217v-369q-147 143 -192 262q-49 119 -49 320v270h458v-483z" />
    <glyph glyph-name="quotedblright" unicode="&#x201d;" horiz-adv-x="1466" 
d="M1303 2589q0 -213 -41 -324q-45 -111 -201 -258v369h-217v483h459v-270zM614 2605q0 -213 -41 -324q-45 -110 -200 -258v369h-217v483h458v-270z" />
    <glyph glyph-name="quotedblbase" unicode="&#x201e;" horiz-adv-x="1384" 
d="M1298 221q0 -213 -41 -323q-45 -111 -200 -258v368h-217v484h458v-271zM623 221q0 -213 -41 -323q-45 -111 -201 -258v368h-217v484h459v-271z" />
    <glyph glyph-name="dagger" unicode="&#x2020;" 
d="M1860 1585h-582v-1954h-578v1954h-577v483h577v799h578v-799h582v-483z" />
    <glyph glyph-name="daggerdbl" unicode="&#x2021;" 
d="M1855 455h-577v-824h-578v824h-577v483h577v688h-577v479h577v762h578v-762h577v-479h-577v-688h577v-483z" />
    <glyph glyph-name="bullet" unicode="&#x2022;" horiz-adv-x="778" 
d="M680 1511q0 -118 -82 -204t-205 -86q-119 0 -205 86t-86 204q0 119 86 205t205 86q115 0 201 -86t86 -205z" />
    <glyph glyph-name="ellipsis" unicode="&#x2026;" horiz-adv-x="3953" 
d="M3514 8h-458v484h458v-484zM2195 8h-454v484h454v-484zM881 8h-459v484h459v-484z" />
    <glyph glyph-name="perthousand" unicode="&#x2030;" horiz-adv-x="5079" 
d="M4927 770q0 -459 -225 -651q-172 -148 -504 -148q-331 0 -503 148q-226 192 -226 651q0 442 209 635q180 164 520 164q414 0 586 -234q143 -192 143 -565zM3326 770q0 -459 -225 -651q-172 -148 -504 -148t-504 148q-225 192 -225 651q0 442 209 635q180 164 520 164
q414 0 586 -234q143 -192 143 -565zM2417 2859l-1102 -2851h-291l1106 2851h287zM1573 2101q0 -463 -221 -651q-172 -147 -504 -147t-504 147q-229 197 -229 651q0 443 209 635q180 164 524 164q409 0 582 -234q143 -196 143 -565zM4620 762q0 295 -127 434
q-106 115 -282 115q-193 0 -291 -111q-123 -135 -123 -438q0 -549 414 -549q409 0 409 549zM3019 762q0 295 -127 434q-107 115 -283 115q-192 0 -291 -111q-123 -135 -123 -438q0 -549 414 -549q410 0 410 549zM1257 2101q0 295 -127 434q-106 115 -282 115
q-193 0 -291 -110q-123 -136 -123 -439q0 -549 414 -549q409 0 409 549z" />
    <glyph glyph-name="guilsinglleft" unicode="&#x2039;" horiz-adv-x="1573" 
d="M1352 1745l-684 -688l667 -688h-590l-639 688l672 688h574z" />
    <glyph glyph-name="guilsinglright" unicode="&#x203a;" horiz-adv-x="1573" 
d="M1360 1057l-672 -688h-573l684 688l-668 688h590z" />
    <glyph glyph-name="trademark" unicode="&#x2122;" horiz-adv-x="3289" 
d="M2781 1798h-237v787l-17 4l-307 -791h-94l-311 791l-17 -4v-787h-237v1053h360l262 -664l234 664h364v-1053zM1327 2642h-323v-844h-267v844h-327v209h917v-209z" />
    <glyph glyph-name="fraction" unicode="&#x2215;" horiz-adv-x="664" 
d="M1016 2859l-1094 -2851h-282l1105 2851h271z" />
    <glyph glyph-name="dotoperator" unicode="&#x2219;" horiz-adv-x="864" 
d="M586 1307q0 -66 -45 -111q-49 -49 -115 -49t-111 45t-45 115q0 69 45 114t111 45t115 -45q45 -49 45 -114z" />
    <glyph glyph-name="fi" unicode="&#xf001;" horiz-adv-x="2519" 
d="M2277 2372h-553v512h553v-512zM2277 20h-553v1672h-737v-1684h-557v1688h-389v405h389v127v70q-4 33 -4 61q0 234 82 340q131 168 487 168h508v-385h-209q-172 0 -241.5 -61.5t-69.5 -184.5v-135h1294v-2081z" />
    <glyph glyph-name="fl" unicode="&#xf002;" horiz-adv-x="2556" 
d="M2269 20h-553v2462h-422q-172 0 -241.5 -61.5t-69.5 -184.5v-135h533v-409h-529v-1684h-557v1688h-389v405h389v127v70q-4 33 -4 61q0 234 82 340q131 168 487 168h721l553 12v-2859z" />
    </font>
</defs>
</svg>
