<?xml version="1.0" standalone="no"?>
<!DOCTYPE svg PUBLIC "-//W3C//DTD SVG 1.1//EN" "http://www.w3.org/Graphics/SVG/1.1/DTD/svg11.dtd" >
<svg>
<metadata>
Created by FontForge 20110222 at Mon Dec  1 04:59:09 2014
 By deploy user
Copyright (c) Alex Kaczun, dba Type Innovations, 2011. All rights reserved.
</metadata>
<defs>
<font id="ContaxSans55" horiz-adv-x="582" >
  <font-face 
    font-family="Contax Sans 55"
    font-weight="400"
    font-stretch="normal"
    units-per-em="1000"
    panose-1="2 0 6 3 3 0 0 2 0 4"
    ascent="800"
    descent="-200"
    x-height="490"
    cap-height="683"
    bbox="-153 -246 1091 1148"
    underline-thickness="20"
    underline-position="-123"
    unicode-range="U+0020-FB04"
  />
<missing-glyph horiz-adv-x="290" 
 />
    <glyph glyph-name="ff" unicode="ff" horiz-adv-x="688" 
d="M742 633l-41 -36q-41 58 -89 58q-37 0 -64 -38t-27 -128l142 1v-45l-142 1v-446h-75v446l-102 -1v45l102 -1q0 96 46.5 149t119.5 53q77 0 130 -58zM398 633l-41 -36q-41 58 -89 58q-37 0 -64 -38t-27 -128l142 1v-45l-142 1v-446h-75v446l-102 -1v45l102 -1
q0 96 46.5 149t119.5 53q77 0 130 -58z" />
    <glyph glyph-name="fi" unicode="fi" horiz-adv-x="613" 
d="M398 633l-41 -36q-41 58 -89 58q-37 0 -64 -38t-27 -128l142 1v-45l-142 1v-446h-75v446l-102 -1v45l102 -1q0 96 46.5 149t119.5 53q77 0 130 -58zM527 641q0 -22 -13.5 -36.5t-34.5 -14.5q-22 0 -35.5 14.5t-13.5 36.5t13.5 36.5t35.5 14.5q21 0 34.5 -14.5t13.5 -36.5
zM516 0h-74v490h74v-490z" />
    <glyph glyph-name="fl" unicode="fl" horiz-adv-x="613" 
d="M398 633l-41 -36q-41 58 -89 58q-37 0 -64 -38t-27 -128l142 1v-45l-142 1v-446h-75v446l-102 -1v45l102 -1q0 96 46.5 149t119.5 53q77 0 130 -58zM516 0h-74v683h74v-683z" />
    <glyph glyph-name="ffi" unicode="ffi" horiz-adv-x="957" 
d="M742 633l-41 -36q-41 58 -89 58q-37 0 -64 -38t-27 -128l142 1v-45l-142 1v-446h-75v446l-102 -1v45l102 -1q0 96 46.5 149t119.5 53q77 0 130 -58zM871 641q0 -22 -13.5 -36.5t-34.5 -14.5q-22 0 -35.5 14.5t-13.5 36.5t13.5 36.5t35.5 14.5q21 0 34.5 -14.5t13.5 -36.5
zM860 0h-74v490h74v-490zM398 633l-41 -36q-41 58 -89 58q-37 0 -64 -38t-27 -128l142 1v-45l-142 1v-446h-75v446l-102 -1v45l102 -1q0 96 46.5 149t119.5 53q77 0 130 -58z" />
    <glyph glyph-name="ffl" unicode="ffl" horiz-adv-x="957" 
d="M742 633l-41 -36q-41 58 -89 58q-37 0 -64 -38t-27 -128l142 1v-45l-142 1v-446h-75v446l-102 -1v45l102 -1q0 96 46.5 149t119.5 53q77 0 130 -58zM860 0h-74v683h74v-683zM398 633l-41 -36q-41 58 -89 58q-37 0 -64 -38t-27 -128l142 1v-45l-142 1v-446h-75v446
l-102 -1v45l102 -1q0 96 46.5 149t119.5 53q77 0 130 -58z" />
    <glyph glyph-name=".notdef" horiz-adv-x="290" 
 />
    <glyph glyph-name=".null" horiz-adv-x="0" 
 />
    <glyph glyph-name="nonmarkingreturn" horiz-adv-x="333" 
 />
    <glyph glyph-name="space" unicode=" " horiz-adv-x="290" 
 />
    <glyph glyph-name="space" unicode="&#xa0;" horiz-adv-x="290" 
 />
    <glyph glyph-name="exclam" unicode="!" horiz-adv-x="277" 
d="M187 43q0 -22 -13.5 -36.5t-34.5 -14.5q-22 0 -35.5 14.5t-13.5 36.5t13.5 36.5t35.5 14.5q21 0 34.5 -14.5t13.5 -36.5zM162 194h-46l-20 489h86z" />
    <glyph glyph-name="quotedbl" unicode="&#x22;" horiz-adv-x="426" 
d="M161 457h-44l-12 258h68zM309 457h-44l-12 258h68z" />
    <glyph glyph-name="numbersign" unicode="#" 
d="M544 403h-118l-20 -127h109v-57h-117l-34 -219h-60l33 219h-129l-34 -219h-60l33 219h-109v57h118l20 127h-109v57h117l32 206h60l-31 -206h129l32 206h60l-31 -206h109v-57zM366 403h-130l-20 -127h130z" />
    <glyph glyph-name="dollar" unicode="$" 
d="M263 -89v107q-79 5 -131 50.5t-61 107.5l59 17q1 -50 40.5 -88.5t92.5 -46.5v262q-89 23 -129 61t-40 95q0 67 48 114.5t121 55.5v99h48v-98q70 -6 116.5 -44.5t57.5 -89.5l-59 -15q-7 38 -40 68.5t-75 38.5v-226q96 -25 139 -67.5t43 -109.5q0 -73 -51.5 -123.5
t-130.5 -58.5v-109h-48zM427 187q0 46 -26.5 73.5t-89.5 46.5v-248q50 8 83 43.5t33 84.5zM160 495q0 -39 23 -62t80 -41v214q-44 -8 -73.5 -38.5t-29.5 -72.5z" />
    <glyph glyph-name="percent" unicode="%" horiz-adv-x="774" 
d="M361 516q0 -65 -47.5 -111.5t-112.5 -46.5q-66 0 -113 46.5t-47 111.5t47 111.5t113 46.5q65 0 112.5 -46.5t47.5 -111.5zM294 517q0 52 -26 87t-67 35t-67 -35t-26 -87q0 -53 26 -88t67 -35t67 35t26 88zM606 674l-393 -682h-47l393 682h47zM733 150q0 -65 -47.5 -111.5
t-112.5 -46.5q-66 0 -113 46.5t-47 111.5t47 111.5t113 46.5q65 0 112.5 -46.5t47.5 -111.5zM666 151q0 52 -26 87t-67 35t-67 -35t-26 -87q0 -53 26 -88t67 -35t67 35t26 88z" />
    <glyph glyph-name="ampersand" unicode="&#x26;" horiz-adv-x="762" 
d="M692 380h-117q25 -45 22 -118.5t-39 -133.5l123 -128h-107l-64 68q-32 -33 -83 -55.5t-110 -22.5q-62 0 -110.5 19.5t-75 50t-40 63.5t-13.5 64q0 62 39.5 115.5t90.5 77.5q-22 22 -35.5 38.5t-27.5 47t-14 61.5q0 60 48.5 103.5t122.5 43.5q90 0 145 -53l-34 -46
q-45 59 -109 59q-44 0 -70 -28t-26 -70q0 -9 2 -18.5t4 -16.5t8 -16.5t9.5 -14.5t13.5 -16.5t14 -15.5t17.5 -18t18.5 -19l221 -229q21 58 14.5 111.5t-34.5 96.5h-90v55h286v-55zM474 105l-239 248q-79 -51 -79 -157q0 -64 47.5 -115t117.5 -51q45 0 87.5 24t65.5 51z" />
    <glyph glyph-name="quotesingle" unicode="'" horiz-adv-x="278" 
d="M161 457h-44l-12 258h68z" />
    <glyph glyph-name="parenleft" unicode="(" horiz-adv-x="340" 
d="M306 -179l-42 -27q-182 230 -182 452q0 130 50.5 238.5t131.5 211.5l42 -27q-145 -206 -145 -423q0 -219 145 -425z" />
    <glyph glyph-name="parenright" unicode=")" horiz-adv-x="340" 
d="M76 -206l-42 27q145 206 145 425q0 217 -145 423l42 27q81 -103 131.5 -211.5t50.5 -238.5q0 -222 -182 -452z" />
    <glyph glyph-name="asterisk" unicode="*" 
d="M471 548l-151 -25l108 -109l-66 -48l-71 139l-70 -140l-66 48l107 110l-151 24l25 78l138 -70l-24 153h82l-23 -153l137 71z" />
    <glyph glyph-name="plus" unicode="+" horiz-adv-x="600" 
d="M546 219h-212v-219h-68v219h-212v68h212v219h68v-219h212v-68z" />
    <glyph glyph-name="comma" unicode="," horiz-adv-x="277" 
d="M189 74l-121 -224h-45l94 250z" />
    <glyph glyph-name="hyphen" unicode="-" horiz-adv-x="345" 
d="M297 221h-249v69h249v-69z" />
    <glyph glyph-name="hyphen" unicode="&#xad;" horiz-adv-x="345" 
d="M297 221h-249v69h249v-69z" />
    <glyph glyph-name="period" unicode="." horiz-adv-x="277" 
d="M187 43q0 -22 -13.5 -36.5t-34.5 -14.5q-22 0 -35.5 14.5t-13.5 36.5t13.5 36.5t35.5 14.5q21 0 34.5 -14.5t13.5 -36.5z" />
    <glyph glyph-name="slash" unicode="/" horiz-adv-x="398" 
d="M360 739l-268 -827l-54 15l268 827z" />
    <glyph glyph-name="zero" unicode="0" 
d="M523 333q0 -174 -66 -257.5t-166 -83.5q-103 0 -167.5 83t-64.5 258t64.5 258t167.5 83q100 0 166 -83.5t66 -257.5zM443 333q0 168 -40.5 234t-111.5 66q-152 0 -152 -300t152 -300q68 0 110 72t42 228z" />
    <glyph glyph-name="one" unicode="1" horiz-adv-x="374" 
d="M258 0h-76l4 613l-141 -82l-26 58l243 99z" />
    <glyph glyph-name="two" unicode="2" horiz-adv-x="532" 
d="M453 0h-446q123 115 200 197t111 136.5t43.5 85t9.5 67.5q0 65 -34 106t-87 41q-46 0 -83.5 -32t-59.5 -91l-59 35q30 62 84 95.5t120 33.5q85 0 141.5 -53.5t56.5 -134.5q0 -32 -4 -55t-22 -60t-52 -76.5t-96 -98t-152 -130.5l329 6v-72z" />
    <glyph glyph-name="three" unicode="3" horiz-adv-x="532" 
d="M218 -8q-122 0 -192 73l51 50q49 -82 141 -82q72 0 116 47t44 116q0 61 -45.5 96.5t-130.5 35.5q-25 0 -63 -5v62q32 -2 44 -2q88 0 130.5 36.5t42.5 88.5q0 59 -33 92t-83 33q-89 0 -131 -84l-59 35q68 90 190 90q83 0 138.5 -46t55.5 -120q0 -50 -27.5 -91t-75.5 -55
q61 -16 94 -60.5t33 -103.5q0 -88 -68 -147t-172 -59z" />
    <glyph glyph-name="four" unicode="4" 
d="M551 187h-104v-187h-76v188h-357l433 500v-433h104v-68zM371 255v281l-244 -281h244z" />
    <glyph glyph-name="five" unicode="5" horiz-adv-x="532" 
d="M471 225q0 -105 -77 -169t-184 -64q-109 0 -182 73l51 50q49 -82 138 -82q71 0 122.5 57.5t51.5 134.5t-45.5 129.5t-119.5 52.5q-36 0 -74.5 -15t-64.5 -35v309h335v-72l-279 5v-171q43 24 102 24q99 0 162.5 -62.5t63.5 -164.5z" />
    <glyph glyph-name="six" unicode="6" 
d="M55 250q0 57 21.5 115t53.5 103.5t76 89.5t82 74t78 56l57 -42q-72 -43 -148 -112.5t-106 -130.5q52 49 136 49q95 0 159 -63t64 -164q0 -91 -70.5 -162t-162.5 -71q-103 0 -171.5 69t-68.5 189zM127 222q0 -79 47 -134.5t114 -55.5q66 0 113.5 55.5t47.5 134.5
t-47.5 135t-113.5 56q-67 0 -114 -56t-47 -135z" />
    <glyph glyph-name="seven" unicode="7" horiz-adv-x="500" 
d="M499 666l-332 -666h-85l337 600l-377 -6v72h457z" />
    <glyph glyph-name="eight" unicode="8" 
d="M524 190q0 -84 -67 -141t-166 -57t-166 57t-67 141q0 59 33.5 103.5t93.5 64.5q-49 18 -75.5 55t-26.5 87q0 73 60.5 123.5t147.5 50.5t147.5 -50.5t60.5 -123.5q0 -50 -26.5 -87t-75.5 -55q60 -20 93.5 -64.5t33.5 -103.5zM419 507q0 53 -35 89.5t-93 36.5t-93 -36.5
t-35 -89.5q0 -54 35 -90.5t93 -36.5q57 0 92.5 37t35.5 90zM444 178q0 64 -42.5 106.5t-110.5 42.5t-110.5 -42.5t-42.5 -106.5q0 -61 42.5 -103t110.5 -42t110.5 42t42.5 103z" />
    <glyph glyph-name="nine" unicode="9" 
d="M523 416q0 -57 -21.5 -115t-53.5 -103.5t-76 -89.5t-82 -74t-78 -56l-57 42q72 43 148 112.5t106 130.5q-52 -49 -136 -49q-95 0 -159 63t-64 164q0 91 70.5 162t162.5 71q103 0 171.5 -69t68.5 -189zM451 444q0 79 -47 134.5t-114 55.5q-66 0 -113.5 -55.5t-47.5 -134.5
t47.5 -135t113.5 -56q67 0 114 56t47 135z" />
    <glyph glyph-name="colon" unicode=":" horiz-adv-x="277" 
d="M187 43q0 -22 -13.5 -36.5t-34.5 -14.5q-22 0 -35.5 14.5t-13.5 36.5t13.5 36.5t35.5 14.5q21 0 34.5 -14.5t13.5 -36.5zM187 341q0 -22 -13.5 -36.5t-34.5 -14.5q-22 0 -35.5 14.5t-13.5 36.5t13.5 36.5t35.5 14.5q21 0 34.5 -14.5t13.5 -36.5z" />
    <glyph glyph-name="semicolon" unicode=";" horiz-adv-x="277" 
d="M189 74l-121 -224h-45l94 250zM187 341q0 -22 -13.5 -36.5t-34.5 -14.5q-22 0 -35.5 14.5t-13.5 36.5t13.5 36.5t35.5 14.5q21 0 34.5 -14.5t13.5 -36.5z" />
    <glyph glyph-name="semicolon" unicode="&#x37e;" horiz-adv-x="277" 
d="M189 74l-121 -224h-45l94 250zM187 341q0 -22 -13.5 -36.5t-34.5 -14.5q-22 0 -35.5 14.5t-13.5 36.5t13.5 36.5t35.5 14.5q21 0 34.5 -14.5t13.5 -36.5z" />
    <glyph glyph-name="less" unicode="&#x3c;" horiz-adv-x="600" 
d="M546 -1l-492 223v62l492 223v-68l-417 -186l417 -186v-68z" />
    <glyph glyph-name="equal" unicode="=" horiz-adv-x="600" 
d="M546 320h-492v68h492v-68zM546 118h-492v68h492v-68z" />
    <glyph glyph-name="greater" unicode="&#x3e;" horiz-adv-x="600" 
d="M546 222l-492 -223v68l417 186l-417 186v68l492 -223v-62z" />
    <glyph glyph-name="question" unicode="?" horiz-adv-x="464" 
d="M412 536q0 -47 -21 -83.5t-50.5 -60.5t-58.5 -48.5t-48 -62t-17 -87.5h-46q-7 61 7 106t39 71.5t51 48.5t45 51t19 65q0 58 -32.5 90t-74.5 32q-43 0 -75.5 -26.5t-50.5 -63.5l-62 30q23 45 69 73.5t110 28.5q78 0 137 -45t59 -119zM242 43q0 -22 -13.5 -36.5
t-34.5 -14.5q-22 0 -35.5 14.5t-13.5 36.5t13.5 36.5t35.5 14.5q21 0 34.5 -14.5t13.5 -36.5z" />
    <glyph glyph-name="at" unicode="@" horiz-adv-x="1000" 
d="M897 409q0 -110 -65 -189.5t-151 -79.5q-54 0 -76.5 28.5t-14.5 73.5q-47 -102 -143 -102q-60 0 -95.5 43t-35.5 113q0 97 60 170.5t133 73.5q47 0 78.5 -24.5t42.5 -61.5l21 70h63l-65 -214q-14 -49 -14 -67q0 -29 14 -44.5t38 -15.5q57 0 103.5 67t46.5 162
q0 114 -83 188.5t-215 74.5q-152 0 -263 -105t-111 -256q0 -145 92 -232t249 -87q78 0 156.5 30.5t134.5 79.5l32 -44q-55 -41 -141.5 -74.5t-181.5 -33.5q-180 0 -291.5 98t-111.5 266q0 109 60.5 201.5t160.5 145.5t215 53q164 0 261 -85t97 -223zM603 411q0 31 -21.5 55
t-56.5 24q-56 0 -98.5 -63.5t-42.5 -133.5q0 -46 22.5 -72t56.5 -26q65 0 103 77q35 75 37 139z" />
    <glyph glyph-name="A" unicode="A" horiz-adv-x="656" 
d="M656 0h-85l-111 242h-294l-107 -242h-59l328 706zM441 285l-130 284l-126 -284h256z" />
    <glyph glyph-name="B" unicode="B" horiz-adv-x="647" 
d="M585 188q0 -33 -10.5 -63.5t-33.5 -59.5t-68 -47t-105 -18h-268v683h240q109 0 162.5 -53t53.5 -123q0 -41 -24.5 -82t-65.5 -65q55 -21 87 -67t32 -105zM506 188q0 26 -6.5 49t-22 45.5t-45.5 35.5t-72 13h-183v-288h183q42 0 72.5 15t45.5 38.5t21.5 46.5t6.5 45z
M477 506q0 58 -37.5 96t-109.5 38h-153v-266h153q72 0 109.5 37t37.5 95z" />
    <glyph glyph-name="C" unicode="C" horiz-adv-x="680" 
d="M52 341q0 146 100 248t237 102q129 0 234 -78l-45 -55q-83 91 -189 91q-109 0 -181.5 -90t-72.5 -218q0 -130 73.5 -218t177.5 -88q113 0 219 95l26 -28q-43 -44 -107.5 -77t-137.5 -33q-138 0 -236 100t-98 249z" />
    <glyph glyph-name="D" unicode="D" horiz-adv-x="716" 
d="M664 341q0 -145 -99.5 -243t-245.5 -98h-219v683h219q146 0 245.5 -98t99.5 -244zM581 341q0 134 -79 216.5t-195 82.5h-130v-597h130q116 0 195 82.5t79 215.5z" />
    <glyph glyph-name="E" unicode="E" horiz-adv-x="580" 
d="M502 0h-402v683h402v-49l-325 6v-273l312 2v-47l-312 2v-281l325 6v-49z" />
    <glyph glyph-name="F" unicode="F" horiz-adv-x="564" 
d="M502 634l-322 6v-273l309 2v-47l-309 2v-324h-80v683h402v-49z" />
    <glyph glyph-name="G" unicode="G" horiz-adv-x="787" 
d="M734 338q0 -144 -93 -245t-239 -101q-145 0 -247.5 102.5t-102.5 246.5q0 145 102.5 247.5t247.5 102.5q166 0 269 -125l-52 -43q-45 60 -101.5 93t-115.5 33q-112 0 -189.5 -90t-77.5 -219q0 -127 77.5 -216.5t189.5 -89.5q107 0 178 80t71 193l-247 -2v47l330 -2v-12z
" />
    <glyph glyph-name="H" unicode="H" horiz-adv-x="712" 
d="M612 0h-77v330h-358v-330h-77v683h77v-310h358v310h77v-683z" />
    <glyph glyph-name="I" unicode="I" horiz-adv-x="302" 
d="M190 0h-78v683h78v-683z" />
    <glyph glyph-name="J" unicode="J" horiz-adv-x="506" 
d="M410 235q0 -109 -63.5 -176t-166.5 -67q-112 0 -179 89l51 43q56 -90 128 -90q69 0 110.5 56t41.5 146v447h78v-448z" />
    <glyph glyph-name="K" unicode="K" horiz-adv-x="663" 
d="M646 0h-116l-353 341l357 342h77l-349 -318zM177 0h-77v683h77v-683z" />
    <glyph glyph-name="L" unicode="L" horiz-adv-x="536" 
d="M502 0h-402v683h77v-640l325 6v-49z" />
    <glyph glyph-name="M" unicode="M" horiz-adv-x="923" 
d="M900 0h-86l-167 531l-198 -554l-205 552l-164 -529h-57l233 706l206 -549l205 549z" />
    <glyph glyph-name="N" unicode="N" horiz-adv-x="727" 
d="M627 -23l-484 560l8 -537h-51v706l484 -561l-8 538h51v-706z" />
    <glyph glyph-name="O" unicode="O" horiz-adv-x="804" 
d="M752 341q0 -145 -102.5 -247t-247.5 -102t-247.5 102t-102.5 247t102 247.5t248 102.5t248 -102.5t102 -247.5zM669 341q0 129 -77.5 218.5t-189.5 89.5t-189.5 -89.5t-77.5 -218.5t77.5 -218t189.5 -89t189.5 89t77.5 218z" />
    <glyph glyph-name="P" unicode="P" horiz-adv-x="597" 
d="M548 486q0 -85 -59.5 -140.5t-152.5 -55.5h-159v-290h-77v683h236q93 0 152.5 -56t59.5 -141zM466 486q0 70 -43.5 112t-107.5 42h-138v-308h138q64 0 107.5 42t43.5 112z" />
    <glyph glyph-name="Q" unicode="Q" horiz-adv-x="804" 
d="M752 341q0 -120 -72.5 -213t-185.5 -124l280 -120l-59 -54l-296 163q-6 -1 -17 -1q-145 0 -247.5 102t-102.5 247t102 247.5t248 102.5t248 -102.5t102 -247.5zM669 341q0 129 -77.5 218.5t-189.5 89.5t-189.5 -89.5t-77.5 -218.5t77.5 -218t189.5 -89t189.5 89t77.5 218
z" />
    <glyph glyph-name="R" unicode="R" horiz-adv-x="624" 
d="M611 0h-103l-296 324h103q70 0 118 40.5t48 117.5t-48 117.5t-118 40.5h-138v-640h-77v683h222q104 0 172.5 -58t68.5 -143q0 -80 -64.5 -134.5t-158.5 -54.5z" />
    <glyph glyph-name="S" unicode="S" 
d="M514 197q0 -89 -67.5 -147t-167.5 -58q-95 0 -158.5 51.5t-74.5 124.5l65 18q3 -60 54.5 -105.5t116.5 -45.5q67 0 113 41.5t46 103.5q0 56 -40.5 88.5t-133.5 54.5q-107 25 -151.5 67.5t-44.5 110.5q0 82 63 136.5t155 54.5q87 0 145 -44.5t71 -105.5l-65 -17
q-8 49 -54.5 86t-99.5 37q-58 0 -100 -36.5t-42 -89.5q0 -48 37 -75t125 -49q113 -28 160.5 -75.5t47.5 -125.5z" />
    <glyph glyph-name="T" unicode="T" horiz-adv-x="521" 
d="M497 636l-198 4v-640h-77v640l-198 -4v47h473v-47z" />
    <glyph glyph-name="U" unicode="U" horiz-adv-x="730" 
d="M634 275q0 -128 -78 -205.5t-191 -77.5t-191 77.5t-78 205.5v408h80v-405q0 -111 52.5 -177t136.5 -66t136.5 66t52.5 177v405h80v-408z" />
    <glyph glyph-name="V" unicode="V" horiz-adv-x="656" 
d="M656 683l-328 -706l-328 706h85l260 -569l252 569h59z" />
    <glyph glyph-name="W" unicode="W" horiz-adv-x="923" 
d="M23 683h86l167 -531l198 554l205 -552l164 529h57l-233 -706l-205 549l-206 -549z" />
    <glyph glyph-name="X" unicode="X" horiz-adv-x="607" 
d="M597 0h-97l-207 299l-215 -299h-70l257 340l-238 343h96l189 -271l197 271h69l-240 -311z" />
    <glyph glyph-name="Y" unicode="Y" horiz-adv-x="570" 
d="M582 683l-256 -379v-304h-82v304l-256 379h98l219 -331l208 331h69z" />
    <glyph glyph-name="Z" unicode="Z" horiz-adv-x="578" 
d="M545 0h-529l412 640l-380 -6v49h497l-412 -640l412 6v-49z" />
    <glyph glyph-name="bracketleft" unicode="[" horiz-adv-x="340" 
d="M284 -193h-167v876h167v-52h-92v-772h92v-52z" />
    <glyph glyph-name="backslash" unicode="\" horiz-adv-x="398" 
d="M280 -88l-268 827l54 15l268 -827z" />
    <glyph glyph-name="bracketright" unicode="]" horiz-adv-x="340" 
d="M223 -193h-167v52h92v772h-92v52h167v-876z" />
    <glyph glyph-name="asciicircum" unicode="^" horiz-adv-x="566" 
d="M478 379h-43l-152 221l-152 -221h-43l195 346z" />
    <glyph glyph-name="underscore" unicode="_" horiz-adv-x="500" 
d="M500 -140h-500v57h500v-57z" />
    <glyph glyph-name="grave" unicode="`" horiz-adv-x="272" 
d="M215 566h-40l-148 167l62 39z" />
    <glyph glyph-name="a" unicode="a" horiz-adv-x="535" 
d="M473 0h-78q-16 27 -16 80q-29 -36 -77 -62t-101 -26q-70 0 -114 36t-44 96q0 34 13.5 61.5t48 55.5t102 51t167.5 39q0 65 -36 97.5t-80 32.5q-85 0 -142 -88l-51 50q91 75 193 75q82 0 138 -47t53 -155l-5 -165q-2 -68 29 -131zM372 194l2 102q-78 -13 -130.5 -32
t-78 -42t-35 -44t-9.5 -47q0 -43 27.5 -67.5t77.5 -24.5q58 0 102 41t44 114z" />
    <glyph glyph-name="b" unicode="b" horiz-adv-x="609" 
d="M158 0h-72v683h72v-273q23 38 70 63t101 25q97 0 164.5 -74.5t67.5 -178.5t-67.5 -178.5t-164.5 -74.5q-54 0 -101 25t-70 63v-80zM158 245q0 -97 45 -157t119 -60q69 0 115 63t46 154t-46 153.5t-115 62.5q-74 0 -119 -58.5t-45 -157.5z" />
    <glyph glyph-name="c" unicode="c" horiz-adv-x="521" 
d="M126 243q-1 -98 51 -153t122 -55q39 0 75 15t48.5 25t32.5 28l25 -27q-77 -84 -187 -84q-104 0 -174.5 72.5t-70.5 178.5q0 105 71.5 180t176.5 75q95 0 174 -59l-39 -47q-60 68 -135 68q-76 0 -123 -63t-47 -154z" />
    <glyph glyph-name="d" unicode="d" horiz-adv-x="609" 
d="M523 0h-72v80q-23 -38 -70 -63t-101 -25q-97 0 -164.5 74.5t-67.5 178.5t67.5 178.5t164.5 74.5q54 0 101 -25t70 -63v273h72v-683zM451 245q0 98 -45 157t-119 59q-69 0 -115 -62.5t-46 -153.5t46 -154t115 -63q74 0 119 60t45 157z" />
    <glyph glyph-name="e" unicode="e" horiz-adv-x="562" 
d="M288 498q103 0 164.5 -68.5t61.5 -175.5h-388q-1 -105 54 -162t127 -57q39 0 75 15t48.5 25t32.5 28l25 -27q-77 -84 -187 -84q-106 0 -179.5 74t-73.5 184q0 104 71 176t169 72zM127 292h309q-6 77 -46.5 123.5t-101.5 46.5q-55 0 -105.5 -46t-55.5 -124z" />
    <glyph glyph-name="f" unicode="f" horiz-adv-x="344" 
d="M398 633l-41 -36q-41 58 -89 58q-37 0 -64 -38t-27 -128l142 1v-45l-142 1v-446h-75v446l-102 -1v45l102 -1q0 96 46.5 149t119.5 53q77 0 130 -58z" />
    <glyph glyph-name="g" unicode="g" horiz-adv-x="609" 
d="M451 245q0 97 -45 157t-119 60q-69 0 -115 -63t-46 -154t46 -153.5t115 -62.5q74 0 119 59t45 157zM523 490v-468q0 -92 -62 -157.5t-176 -65.5q-54 0 -99 14t-67.5 28.5t-51.5 38.5l44 46q72 -90 174 -90q72 0 119 46t47 149v49q-23 -38 -70 -63t-101 -25
q-97 0 -164.5 74.5t-67.5 178.5t67.5 178.5t164.5 74.5q54 0 101 -25t70 -63v80h72z" />
    <glyph glyph-name="h" unicode="h" horiz-adv-x="593" 
d="M436 0v291q0 84 -39 118t-97 34q-61 0 -100.5 -40t-39.5 -107v-296h-74v683h74v-274q21 35 64.5 62t102.5 27q35 0 65 -9t58 -30.5t44 -64t16 -101.5v-293h-74z" />
    <glyph glyph-name="i" unicode="i" horiz-adv-x="269" 
d="M183 641q0 -22 -13.5 -36.5t-34.5 -14.5q-22 0 -35.5 14.5t-13.5 36.5t13.5 36.5t35.5 14.5q21 0 34.5 -14.5t13.5 -36.5zM172 0h-74v490h74v-490z" />
    <glyph glyph-name="j" unicode="j" horiz-adv-x="269" 
d="M172 -27q0 -73 -46 -123.5t-118 -50.5q-76 0 -123 38l44 46q11 -14 18 -21t24.5 -16.5t36.5 -9.5q90 0 90 131v523h74v-517zM183 641q0 -22 -13.5 -36.5t-34.5 -14.5q-22 0 -35.5 14.5t-13.5 36.5t13.5 36.5t35.5 14.5q21 0 34.5 -14.5t13.5 -36.5z" />
    <glyph glyph-name="k" unicode="k" horiz-adv-x="533" 
d="M528 0h-108l-260 252l249 238h71l-242 -216zM160 0h-74v683h74v-683z" />
    <glyph glyph-name="l" unicode="l" horiz-adv-x="269" 
d="M172 0h-74v683h74v-683z" />
    <glyph glyph-name="m" unicode="m" horiz-adv-x="899" 
d="M160 296v-296h-74v490h74v-76q22 33 61.5 58.5t94.5 25.5q117 0 155 -100q25 41 70 70.5t103 29.5q72 0 122 -46t50 -159v-293h-74v291q0 84 -36 118t-89 34q-56 0 -92.5 -40t-36.5 -107v-3v-293h-74v291q0 84 -36 118t-89 34q-56 0 -92.5 -40t-36.5 -107z" />
    <glyph glyph-name="n" unicode="n" horiz-adv-x="593" 
d="M436 0v291q0 84 -39 118t-97 34q-61 0 -100.5 -40t-39.5 -107v-296h-74v490h74v-81q21 35 64.5 62t102.5 27q35 0 65 -9t58 -30.5t44 -64t16 -101.5v-293h-74z" />
    <glyph glyph-name="o" unicode="o" horiz-adv-x="584" 
d="M536 245q0 -105 -71.5 -179t-172.5 -74t-172.5 74t-71.5 179q0 104 71.5 178.5t172.5 74.5t172.5 -74.5t71.5 -178.5zM458 246q0 90 -48 153t-118 63t-118 -63t-48 -153q0 -91 48 -154t118 -63t118 63t48 154z" />
    <glyph glyph-name="p" unicode="p" horiz-adv-x="609" 
d="M86 490h72v-80q23 38 70 63t101 25q97 0 164.5 -74.5t67.5 -178.5t-67.5 -178.5t-164.5 -74.5q-54 0 -101 25t-70 63v-273h-72v683zM158 245q0 -99 45 -157.5t119 -58.5q69 0 115 62.5t46 153.5t-46 154t-115 63q-74 0 -119 -60t-45 -157z" />
    <glyph glyph-name="q" unicode="q" horiz-adv-x="609" 
d="M451 490h72v-683h-72v273q-23 -38 -70 -63t-101 -25q-97 0 -164.5 74.5t-67.5 178.5t67.5 178.5t164.5 74.5q54 0 101 -25t70 -63v80zM451 245q0 97 -45 157t-119 60q-69 0 -115 -63t-46 -154t46 -153.5t115 -62.5q74 0 119 59t45 157z" />
    <glyph glyph-name="r" unicode="r" horiz-adv-x="344" 
d="M326 441q-78 9 -122 -33t-44 -112v-296h-74v490h74v-81q22 38 67.5 63.5t98.5 25.5v-57z" />
    <glyph glyph-name="s" unicode="s" horiz-adv-x="494" 
d="M431 141q0 -64 -56 -106.5t-138 -42.5q-78 0 -130 38t-62 93l59 15q7 -48 45.5 -78.5t90.5 -30.5t89 28.5t37 69.5q0 37 -33 58t-106 37q-86 19 -124 52.5t-38 83.5q0 60 52 100t128 40q72 0 120 -33.5t59 -79.5l-58 -13q-12 38 -47 63.5t-76 25.5q-46 0 -79 -25t-33 -59
q0 -33 29.5 -51.5t100.5 -33.5q92 -21 131 -57t39 -94z" />
    <glyph glyph-name="t" unicode="t" horiz-adv-x="334" 
d="M177 446v-315q0 -85 29 -131h-83q-21 53 -21 131v315l-102 -1v45l102 -1v161h75v-161l142 1v-45z" />
    <glyph glyph-name="u" unicode="u" horiz-adv-x="593" 
d="M157 490v-291q0 -84 39.5 -118t97.5 -34q61 0 100 39.5t39 107.5v296h74v-490h-74v81q-21 -35 -64.5 -62t-102.5 -27q-35 0 -65 9t-58 30.5t-44 64t-16 101.5v293h74z" />
    <glyph glyph-name="v" unicode="v" horiz-adv-x="504" 
d="M499 490l-247 -517l-247 517h86l178 -391l173 391h57z" />
    <glyph glyph-name="w" unicode="w" horiz-adv-x="782" 
d="M26 490h78l145 -372l158 395l164 -395l129 372h56l-201 -517l-164 385l-164 -385z" />
    <glyph glyph-name="x" unicode="x" horiz-adv-x="469" 
d="M448 0h-89l-137 198l-136 -198h-66l177 234l-177 256h88l134 -192l135 192h66l-178 -228z" />
    <glyph glyph-name="y" unicode="y" horiz-adv-x="517" 
d="M509 490l-354 -724l-67 37q10 9 26 27t54.5 74.5t65.5 115.5l-229 470h86l183 -391l179 391h56z" />
    <glyph glyph-name="z" unicode="z" horiz-adv-x="454" 
d="M412 0h-396l289 449l-265 -6v47h372l-290 -449l290 6v-47z" />
    <glyph glyph-name="braceleft" unicode="{" horiz-adv-x="340" 
d="M290 -191q-12 -1 -24 -1q-77 0 -109.5 34t-32.5 113v171q0 46 -15 66.5t-57 27.5v47q43 8 57.5 28t14.5 66v184q0 73 33.5 105.5t109.5 32.5q12 0 23 -1v-51q-61 -1 -76 -17.5t-15 -80.5v-172q0 -47 -15 -72t-51 -45q35 -19 50.5 -46t15.5 -73v-165q0 -66 15 -83t76 -17
v-51z" />
    <glyph glyph-name="bar" unicode="|" horiz-adv-x="222" 
d="M145 -200h-68v1000h68v-1000z" />
    <glyph glyph-name="braceright" unicode="}" horiz-adv-x="340" 
d="M50 -191v51q61 0 76 17t15 83v165q0 46 15.5 73t50.5 46q-36 20 -51 45t-15 72v172q0 64 -15 80.5t-76 17.5v51q11 1 23 1q76 0 109.5 -32.5t33.5 -105.5v-184q0 -46 14.5 -66t57.5 -28v-47q-42 -7 -57 -27.5t-15 -66.5v-171q0 -79 -32.5 -113t-109.5 -34q-12 0 -24 1z
" />
    <glyph glyph-name="asciitilde" unicode="~" horiz-adv-x="600" 
d="M186 255q-26 0 -47 -18t-28.5 -32t-11.5 -26l-44 9q41 128 150 128q36 0 104 -32.5t105 -32.5q26 0 47 18t28.5 32t11.5 26l44 -9q-43 -134 -150 -134q-37 0 -105 35.5t-104 35.5z" />
    <glyph glyph-name="exclamdown" unicode="&#xa1;" horiz-adv-x="277" 
d="M90 447q0 22 13.5 36.5t34.5 14.5q22 0 35.5 -14.5t13.5 -36.5t-13.5 -36.5t-35.5 -14.5q-21 0 -34.5 14.5t-13.5 36.5zM115 296h46l20 -489h-86z" />
    <glyph glyph-name="cent" unicode="&#xa2;" 
d="M279 -18v105q-93 11 -153 81.5t-60 167.5q0 96 60 167.5t153 84.5v94h48v-91q86 -4 161 -59l-39 -47q-54 61 -122 67v-424q36 2 69.5 17t45.5 24.5t31 26.5l25 -27q-70 -76 -171 -84v-103h-48zM144 336q-1 -84 37.5 -136.5t97.5 -67.5v417q-61 -15 -98 -74t-37 -139z" />
    <glyph glyph-name="sterling" unicode="&#xa3;" 
d="M521 605l-48 -47l-7 9q-8 9 -11 12l-12 12t-14.5 13t-16 10.5t-20 10t-21.5 6t-25 2.5q-68 0 -105 -46.5t-37 -116.5q0 -24 7 -50t13 -40l7 -14h200v-56h-180q27 -53 23 -101.5t-21.5 -81.5t-47.5 -60l307 5v-72h-438v65l74 1q35 35 44.5 83.5t1 87t-26.5 73.5h-111v56
h91q-22 46 -22 104q0 93 67.5 148.5t153.5 55.5q106 0 175 -69z" />
    <glyph glyph-name="currency" unicode="&#xa4;" 
d="M513 518l-90 -89q32 -43 32 -97t-32 -97l90 -89l-36 -36l-90 89q-42 -31 -96 -31t-96 31l-90 -89l-36 36l90 89q-32 43 -32 97t32 97l-90 89l36 36l90 -90q43 32 96 32t96 -32l90 90zM392 332q0 42 -29.5 71.5t-71.5 29.5t-71.5 -29.5t-29.5 -71.5t29.5 -71.5t71.5 -29.5
t71.5 29.5t29.5 71.5z" />
    <glyph glyph-name="yen" unicode="&#xa5;" 
d="M74 353h147l-191 313h92l187 -313h1l173 313h69l-191 -313h147v-49h-177v-95h169v-49h-169v-160h-80v160h-169v49h169v95h-177v49z" />
    <glyph glyph-name="brokenbar" unicode="&#xa6;" horiz-adv-x="222" 
d="M145 433h-68v250h68v-250zM145 -67h-68v250h68v-250z" />
    <glyph glyph-name="section" unicode="&#xa7;" horiz-adv-x="545" 
d="M64 287q0 89 85 141q-61 51 -61 118q0 69 51 115t131 46q81 0 126 -43.5t54 -106.5l-65 -17q-9 54 -38.5 88.5t-79.5 34.5q-44 0 -75 -27t-31 -72q0 -40 33 -73t80 -57.5t94 -51.5t80 -68.5t33 -94.5q0 -91 -86 -141q62 -50 62 -118q0 -69 -51 -115t-131 -46
q-81 0 -126 43.5t-54 106.5l65 17q9 -54 38.5 -88.5t79.5 -34.5q44 0 75 27t31 72q0 40 -33 73t-80 57.5t-94 51.5t-80 68.5t-33 94.5zM408 202q0 29 -13.5 54t-39.5 45t-50.5 34.5t-62 34t-58.5 33.5q-47 -40 -47 -99q0 -30 13 -54.5t39 -44.5t51 -34.5t62 -34t58 -33.5
q48 38 48 99z" />
    <glyph glyph-name="dieresis" unicode="&#xa8;" horiz-adv-x="272" 
d="M97 641q0 -22 -13.5 -36.5t-34.5 -14.5q-22 0 -35.5 14.5t-13.5 36.5t13.5 36.5t35.5 14.5q21 0 34.5 -14.5t13.5 -36.5zM272 641q0 -22 -13.5 -36.5t-34.5 -14.5q-22 0 -35.5 14.5t-13.5 36.5t13.5 36.5t35.5 14.5q21 0 34.5 -14.5t13.5 -36.5z" />
    <glyph glyph-name="copyright" unicode="&#xa9;" horiz-adv-x="804" 
d="M752 341q0 -145 -102.5 -247t-247.5 -102t-247.5 102t-102.5 247t102 247.5t248 102.5t248 -102.5t102 -247.5zM702 341q0 126 -88 215t-212 89t-212 -89t-88 -215q0 -125 88 -214t212 -89t212 89t88 214zM274 339q-1 -75 39 -118.5t94 -43.5q66 0 125 56l24 -26
q-65 -70 -154 -70q-84 0 -141 58.5t-57 143.5t58 145.5t142 60.5q75 0 144 -51l-37 -44q-52 59 -107 59q-58 0 -94 -49.5t-36 -120.5z" />
    <glyph glyph-name="ordfeminine" unicode="&#xaa;" horiz-adv-x="414" 
d="M344 363h-60q-10 13 -12 38q-45 -43 -101 -43q-45 0 -73 23t-28 62q0 46 42 78.5t157 51.5q-2 34 -21.5 50.5t-42.5 16.5q-50 0 -84 -56l-41 40q60 50 125 50q52 0 87.5 -29.5t33.5 -97.5l-3 -99q-2 -39 21 -85zM267 485l2 55q-83 -15 -111.5 -38.5t-28.5 -53.5
q0 -50 57 -50q32 0 56.5 23t24.5 64zM344 263h-276v44h276v-44z" />
    <glyph glyph-name="guillemotleft" unicode="&#xab;" 
d="M512 79l-25 -25l-230 202l230 202l25 -25l-148 -177zM296 79l-25 -25l-230 202l230 202l25 -25l-148 -177z" />
    <glyph glyph-name="logicalnot" unicode="&#xac;" horiz-adv-x="600" 
d="M546 118h-68v202h-424v68h492v-270z" />
    <glyph glyph-name="registered" unicode="&#xae;" horiz-adv-x="596" 
d="M519 515q0 -90 -64.5 -153.5t-155.5 -63.5q-92 0 -156.5 63t-64.5 154t64.5 154.5t156.5 63.5q91 0 155.5 -63.5t64.5 -154.5zM479 515q0 76 -52 128.5t-128 52.5t-129 -52.5t-53 -128.5q0 -75 53 -128t129 -53q75 0 127.5 53t52.5 128zM405 389h-51l-98 119v-119h-39
v251h84q39 0 64.5 -21.5t25.5 -54.5q0 -27 -20.5 -46.5t-51.5 -24.5zM256 613v-98h43q22 0 37 12.5t15 36.5t-15 36.5t-37 12.5h-43z" />
    <glyph glyph-name="macron" unicode="&#xaf;" horiz-adv-x="272" 
d="M266 609h-260v54h260v-54z" />
    <glyph glyph-name="macron" unicode="&#x2c9;" horiz-adv-x="272" 
d="M266 609h-260v54h260v-54z" />
    <glyph glyph-name="degree" unicode="&#xb0;" horiz-adv-x="414" 
d="M355 559q0 -60 -44 -102.5t-104 -42.5q-61 0 -104.5 42.5t-43.5 102.5t43.5 102.5t104.5 42.5q60 0 104 -42.5t44 -102.5zM290 560q0 44 -23.5 74t-59.5 30t-59.5 -30t-23.5 -74q0 -45 23.5 -75t59.5 -30t59.5 30t23.5 75z" />
    <glyph glyph-name="plusminus" unicode="&#xb1;" horiz-adv-x="600" 
d="M546 295h-212v-191h-68v191h-212v68h212v191h68v-191h212v-68zM546 0h-492v68h492v-68z" />
    <glyph glyph-name="twosuperior" unicode="&#xb2;" horiz-adv-x="386" 
d="M328 271h-303q106 92 161.5 151.5t67 84.5t11.5 52q0 35 -19.5 57.5t-50.5 22.5q-57 0 -87 -75l-49 28q45 82 137 82q56 0 93.5 -33t37.5 -82q0 -46 -36 -95.5t-157 -140.5l194 2v-54z" />
    <glyph glyph-name="threesuperior" unicode="&#xb3;" horiz-adv-x="386" 
d="M175 266q-80 0 -129 49l41 38q32 -51 88 -51q43 0 69 25.5t26 63.5q0 32 -27.5 51t-77.5 19q-21 0 -46 -4v50q70 -6 103.5 13.5t33.5 51.5q0 31 -19 48.5t-48 17.5q-54 0 -81 -51l-48 28q49 59 129 59q54 0 91 -28t37 -74q0 -27 -13.5 -50t-38.5 -35q67 -26 67 -95
q0 -53 -45 -89.5t-112 -36.5z" />
    <glyph glyph-name="acute" unicode="&#xb4;" horiz-adv-x="272" 
d="M265 733l-148 -167h-40l126 206z" />
    <glyph glyph-name="mu" unicode="&#xb5;" horiz-adv-x="596" 
d="M160 490v-291q0 -84 39.5 -118t97.5 -34q61 0 100 39.5t39 107.5v296h74v-490h-74v81q-21 -35 -60.5 -62t-91.5 -27q-77 0 -124 40v-225h-74v683h74z" />
    <glyph glyph-name="mu" unicode="&#x3bc;" horiz-adv-x="596" 
d="M160 490v-291q0 -84 39.5 -118t97.5 -34q61 0 100 39.5t39 107.5v296h74v-490h-74v81q-21 -35 -60.5 -62t-91.5 -27q-77 0 -124 40v-225h-74v683h74z" />
    <glyph glyph-name="paragraph" unicode="&#xb6;" 
d="M559 634l-78 1v-816h-49v817l-81 1v-818h-171v49l102 -2v402q-44 0 -85.5 11.5t-77.5 35t-57.5 65t-21.5 96.5q0 105 72.5 156t169.5 51h277v-49zM282 312v327q-57 -1 -95.5 -48t-38.5 -115t38.5 -115.5t95.5 -48.5z" />
    <glyph glyph-name="periodcentered" unicode="&#xb7;" horiz-adv-x="277" 
d="M187 256q0 -22 -13.5 -36.5t-34.5 -14.5q-22 0 -35.5 14.5t-13.5 36.5t13.5 36.5t35.5 14.5q21 0 34.5 -14.5t13.5 -36.5z" />
    <glyph glyph-name="periodcentered" unicode="&#x2219;" horiz-adv-x="277" 
d="M187 256q0 -22 -13.5 -36.5t-34.5 -14.5q-22 0 -35.5 14.5t-13.5 36.5t13.5 36.5t35.5 14.5q21 0 34.5 -14.5t13.5 -36.5z" />
    <glyph glyph-name="cedilla" unicode="&#xb8;" horiz-adv-x="272" 
d="M246 -138q0 -37 -34.5 -62.5t-111.5 -25.5l-62 6l11 42q29 -12 58 -12t49.5 13t20.5 37q0 23 -29 35.5t-70 3.5l47 109h32l-28 -66q45 0 81 -19.5t36 -60.5z" />
    <glyph glyph-name="onesuperior" unicode="&#xb9;" horiz-adv-x="336" 
d="M205 272h-60l2 352l-84 -46l-23 46l167 63z" />
    <glyph glyph-name="ordmasculine" unicode="&#xba;" horiz-adv-x="414" 
d="M359 516q0 -65 -45 -111.5t-107 -46.5q-63 0 -107.5 46.5t-44.5 111.5t44.5 111.5t107.5 46.5q62 0 107 -46.5t45 -111.5zM301 517q0 52 -27 87.5t-67 35.5t-67 -35.5t-27 -87.5q0 -53 27 -89t67 -36t67 36t27 89zM359 263h-304v44h304v-44z" />
    <glyph glyph-name="guillemotright" unicode="&#xbb;" 
d="M95 54l-25 25l148 177l-148 177l25 25l230 -202zM311 54l-25 25l148 177l-148 177l25 25l230 -202z" />
    <glyph glyph-name="onequarter" unicode="&#xbc;" horiz-adv-x="763" 
d="M205 272h-60l2 352l-84 -46l-23 46l167 63zM582 674l-393 -682h-47l393 682h47zM713 109h-66v-109h-60v110h-231l291 311v-261h66v-51zM587 160v143l-133 -143h133z" />
    <glyph glyph-name="onehalf" unicode="&#xbd;" horiz-adv-x="774" 
d="M205 272h-60l2 352l-84 -46l-23 46l167 63zM564 674l-393 -682h-47l393 682h47zM713 0h-303q106 92 161.5 151.5t67 84.5t11.5 52q0 35 -19.5 57.5t-50.5 22.5q-57 0 -87 -75l-49 28q45 82 137 82q56 0 93.5 -33t37.5 -82q0 -46 -36 -95.5t-157 -140.5l194 2v-54z" />
    <glyph glyph-name="threequarters" unicode="&#xbe;" horiz-adv-x="774" 
d="M175 266q-80 0 -129 49l41 38q32 -51 88 -51q43 0 69 25.5t26 63.5q0 32 -27.5 51t-77.5 19q-21 0 -46 -4v50q70 -6 103.5 13.5t33.5 51.5q0 31 -19 48.5t-48 17.5q-54 0 -81 -51l-48 28q49 59 129 59q54 0 91 -28t37 -74q0 -27 -13.5 -50t-38.5 -35q67 -26 67 -95
q0 -53 -45 -89.5t-112 -36.5zM627 674l-393 -682h-47l393 682h47zM734 109h-66v-109h-60v110h-231l291 311v-261h66v-51zM608 160v143l-133 -143h133z" />
    <glyph glyph-name="questiondown" unicode="&#xbf;" horiz-adv-x="464" 
d="M52 -46q0 47 21 83.5t50.5 60.5t58.5 48.5t48 62t17 87.5h46q7 -61 -7 -106t-39 -71.5t-51 -48.5t-45 -51t-19 -65q0 -58 32.5 -90t74.5 -32q43 0 75.5 26.5t50.5 63.5l62 -30q-23 -45 -69 -73.5t-110 -28.5q-78 0 -137 45t-59 119zM222 447q0 22 13.5 36.5t34.5 14.5
q22 0 35.5 -14.5t13.5 -36.5t-13.5 -36.5t-35.5 -14.5q-21 0 -34.5 14.5t-13.5 36.5z" />
    <glyph glyph-name="Agrave" unicode="&#xc0;" horiz-adv-x="656" 
d="M656 0h-85l-111 242h-294l-107 -242h-59l328 706zM441 285l-130 284l-126 -284h256zM397 739h-40l-148 167l62 39z" />
    <glyph glyph-name="Aacute" unicode="&#xc1;" horiz-adv-x="656" 
d="M656 0h-85l-111 242h-294l-107 -242h-59l328 706zM441 285l-130 284l-126 -284h256zM457 906l-148 -167h-40l126 206z" />
    <glyph glyph-name="Acircumflex" unicode="&#xc2;" horiz-adv-x="656" 
d="M656 0h-85l-111 242h-294l-107 -242h-59l328 706zM441 285l-130 284l-126 -284h256zM454 739h-40l-86 98l-86 -98h-40l126 206z" />
    <glyph glyph-name="Atilde" unicode="&#xc3;" horiz-adv-x="656" 
d="M656 0h-85l-111 242h-294l-107 -242h-59l328 706zM441 285l-130 284l-126 -284h256zM261 797q-24 0 -37.5 -14t-16.5 -28l-30 9q11 37 37.5 64.5t68.5 27.5q24 0 65.5 -18.5t68.5 -18.5q24 0 37.5 14t16.5 28l30 -9q-11 -37 -37.5 -64.5t-68.5 -27.5q-25 0 -66.5 18.5
t-67.5 18.5z" />
    <glyph glyph-name="Adieresis" unicode="&#xc4;" horiz-adv-x="656" 
d="M656 0h-85l-111 242h-294l-107 -242h-59l328 706zM441 285l-130 284l-126 -284h256zM289 814q0 -22 -13.5 -36.5t-34.5 -14.5q-22 0 -35.5 14.5t-13.5 36.5t13.5 36.5t35.5 14.5q21 0 34.5 -14.5t13.5 -36.5zM464 814q0 -22 -13.5 -36.5t-34.5 -14.5q-22 0 -35.5 14.5
t-13.5 36.5t13.5 36.5t35.5 14.5q21 0 34.5 -14.5t13.5 -36.5z" />
    <glyph glyph-name="Aring" unicode="&#xc5;" horiz-adv-x="656" 
d="M656 0h-85l-111 242h-294l-107 -242h-59l328 706zM441 285l-130 284l-126 -284h256zM446 855q0 -48 -35 -82t-83 -34q-49 0 -83.5 34t-34.5 82t34.5 82t83.5 34q48 0 83 -34t35 -82zM394 856q0 35 -19 59t-47 24t-47 -24t-19 -59t19 -59.5t47 -24.5t47 24.5t19 59.5z" />
    <glyph glyph-name="AE" unicode="&#xc6;" horiz-adv-x="884" 
d="M419 0v279h-220l-170 -279h-59l425 683h411v-49l-310 6v-273l297 2v-47l-297 2v-281l310 6v-49h-387zM419 323v317l-193 -317h193z" />
    <glyph glyph-name="Ccedilla" unicode="&#xc7;" horiz-adv-x="680" 
d="M475 -138q0 -37 -34.5 -62.5t-111.5 -25.5l-62 6l11 42q29 -12 58 -12t49.5 13t20.5 37q0 23 -29 35.5t-70 3.5l41 95q-126 15 -211 111.5t-85 235.5q0 146 100 248t237 102q129 0 234 -78l-45 -55q-83 91 -189 91q-109 0 -181.5 -90t-72.5 -218q0 -130 73.5 -218
t177.5 -88q113 0 219 95l26 -28q-43 -44 -107.5 -77t-137.5 -33h-7l-21 -50q45 0 81 -19.5t36 -60.5z" />
    <glyph glyph-name="Egrave" unicode="&#xc8;" horiz-adv-x="580" 
d="M502 0h-402v683h402v-49l-325 6v-273l312 2v-47l-312 2v-281l325 6v-49zM371 739h-40l-148 167l62 39z" />
    <glyph glyph-name="Eacute" unicode="&#xc9;" horiz-adv-x="580" 
d="M502 0h-402v683h402v-49l-325 6v-273l312 2v-47l-312 2v-281l325 6v-49zM439 906l-148 -167h-40l126 206z" />
    <glyph glyph-name="Ecircumflex" unicode="&#xca;" horiz-adv-x="580" 
d="M502 0h-402v683h402v-49l-325 6v-273l312 2v-47l-312 2v-281l325 6v-49zM428 739h-40l-86 98l-86 -98h-40l126 206z" />
    <glyph glyph-name="Edieresis" unicode="&#xcb;" horiz-adv-x="580" 
d="M502 0h-402v683h402v-49l-325 6v-273l312 2v-47l-312 2v-281l325 6v-49zM263 814q0 -22 -13.5 -36.5t-34.5 -14.5q-22 0 -35.5 14.5t-13.5 36.5t13.5 36.5t35.5 14.5q21 0 34.5 -14.5t13.5 -36.5zM438 814q0 -22 -13.5 -36.5t-34.5 -14.5q-22 0 -35.5 14.5t-13.5 36.5
t13.5 36.5t35.5 14.5q21 0 34.5 -14.5t13.5 -36.5z" />
    <glyph glyph-name="Igrave" unicode="&#xcc;" horiz-adv-x="302" 
d="M190 0h-78v683h78v-683zM219 739h-40l-148 167l62 39z" />
    <glyph glyph-name="Iacute" unicode="&#xcd;" horiz-adv-x="302" 
d="M190 0h-78v683h78v-683zM279 906l-148 -167h-40l126 206z" />
    <glyph glyph-name="Icircumflex" unicode="&#xce;" horiz-adv-x="302" 
d="M190 0h-78v683h78v-683zM276 739h-40l-86 98l-86 -98h-40l126 206z" />
    <glyph glyph-name="Idieresis" unicode="&#xcf;" horiz-adv-x="302" 
d="M190 0h-78v683h78v-683zM111 814q0 -22 -13.5 -36.5t-34.5 -14.5q-22 0 -35.5 14.5t-13.5 36.5t13.5 36.5t35.5 14.5q21 0 34.5 -14.5t13.5 -36.5zM286 814q0 -22 -13.5 -36.5t-34.5 -14.5q-22 0 -35.5 14.5t-13.5 36.5t13.5 36.5t35.5 14.5q21 0 34.5 -14.5t13.5 -36.5z
" />
    <glyph glyph-name="Eth" unicode="&#xd0;" horiz-adv-x="716" 
d="M664 341q0 -145 -99.5 -243t-245.5 -98h-219v327h-100v49h100v307h219q146 0 245.5 -98t99.5 -244zM355 327h-178v-284h130q116 0 195 82.5t79 215.5q0 134 -79 216.5t-195 82.5h-130v-264h178v-49z" />
    <glyph glyph-name="Ntilde" unicode="&#xd1;" horiz-adv-x="727" 
d="M627 -23l-484 560l8 -537h-51v706l484 -561l-8 538h51v-706zM312 797q-24 0 -37.5 -14t-16.5 -28l-30 9q11 37 37.5 64.5t68.5 27.5q24 0 65.5 -18.5t68.5 -18.5q24 0 37.5 14t16.5 28l30 -9q-11 -37 -37.5 -64.5t-68.5 -27.5q-25 0 -66.5 18.5t-67.5 18.5z" />
    <glyph glyph-name="Ograve" unicode="&#xd2;" horiz-adv-x="804" 
d="M752 341q0 -145 -102.5 -247t-247.5 -102t-247.5 102t-102.5 247t102 247.5t248 102.5t248 -102.5t102 -247.5zM669 341q0 129 -77.5 218.5t-189.5 89.5t-189.5 -89.5t-77.5 -218.5t77.5 -218t189.5 -89t189.5 89t77.5 218zM471 739h-40l-148 167l62 39z" />
    <glyph glyph-name="Oacute" unicode="&#xd3;" horiz-adv-x="804" 
d="M752 341q0 -145 -102.5 -247t-247.5 -102t-247.5 102t-102.5 247t102 247.5t248 102.5t248 -102.5t102 -247.5zM669 341q0 129 -77.5 218.5t-189.5 89.5t-189.5 -89.5t-77.5 -218.5t77.5 -218t189.5 -89t189.5 89t77.5 218zM531 906l-148 -167h-40l126 206z" />
    <glyph glyph-name="Ocircumflex" unicode="&#xd4;" horiz-adv-x="804" 
d="M752 341q0 -145 -102.5 -247t-247.5 -102t-247.5 102t-102.5 247t102 247.5t248 102.5t248 -102.5t102 -247.5zM669 341q0 129 -77.5 218.5t-189.5 89.5t-189.5 -89.5t-77.5 -218.5t77.5 -218t189.5 -89t189.5 89t77.5 218zM528 739h-40l-86 98l-86 -98h-40l126 206z" />
    <glyph glyph-name="Otilde" unicode="&#xd5;" horiz-adv-x="804" 
d="M752 341q0 -145 -102.5 -247t-247.5 -102t-247.5 102t-102.5 247t102 247.5t248 102.5t248 -102.5t102 -247.5zM669 341q0 129 -77.5 218.5t-189.5 89.5t-189.5 -89.5t-77.5 -218.5t77.5 -218t189.5 -89t189.5 89t77.5 218zM335 797q-24 0 -37.5 -14t-16.5 -28l-30 9
q11 37 37.5 64.5t68.5 27.5q24 0 65.5 -18.5t68.5 -18.5q24 0 37.5 14t16.5 28l30 -9q-11 -37 -37.5 -64.5t-68.5 -27.5q-25 0 -66.5 18.5t-67.5 18.5z" />
    <glyph glyph-name="Odieresis" unicode="&#xd6;" horiz-adv-x="804" 
d="M752 341q0 -145 -102.5 -247t-247.5 -102t-247.5 102t-102.5 247t102 247.5t248 102.5t248 -102.5t102 -247.5zM669 341q0 129 -77.5 218.5t-189.5 89.5t-189.5 -89.5t-77.5 -218.5t77.5 -218t189.5 -89t189.5 89t77.5 218zM363 814q0 -22 -13.5 -36.5t-34.5 -14.5
q-22 0 -35.5 14.5t-13.5 36.5t13.5 36.5t35.5 14.5q21 0 34.5 -14.5t13.5 -36.5zM538 814q0 -22 -13.5 -36.5t-34.5 -14.5q-22 0 -35.5 14.5t-13.5 36.5t13.5 36.5t35.5 14.5q21 0 34.5 -14.5t13.5 -36.5z" />
    <glyph glyph-name="multiply" unicode="&#xd7;" horiz-adv-x="600" 
d="M530 72l-48 -48l-181 182l-182 -182l-48 48l182 182l-181 180l48 48l181 -180l180 180l48 -48l-180 -180z" />
    <glyph glyph-name="Oslash" unicode="&#xd8;" horiz-adv-x="786" 
d="M41 -34l112 129q-101 101 -101 246t102 247.5t248 102.5q115 0 207 -68l81 94h70l-111 -128q103 -101 103 -248q0 -145 -102.5 -247t-247.5 -102q-116 0 -209 69l-82 -95h-70zM669 341q0 112 -63 198l-376 -435q73 -70 172 -70q112 0 189.5 89t77.5 218zM135 341
q0 -110 60 -196l376 435q-74 69 -169 69q-112 0 -189.5 -89.5t-77.5 -218.5z" />
    <glyph glyph-name="Ugrave" unicode="&#xd9;" horiz-adv-x="730" 
d="M634 275q0 -128 -78 -205.5t-191 -77.5t-191 77.5t-78 205.5v408h80v-405q0 -111 52.5 -177t136.5 -66t136.5 66t52.5 177v405h80v-408zM434 739h-40l-148 167l62 39z" />
    <glyph glyph-name="Uacute" unicode="&#xda;" horiz-adv-x="730" 
d="M634 275q0 -128 -78 -205.5t-191 -77.5t-191 77.5t-78 205.5v408h80v-405q0 -111 52.5 -177t136.5 -66t136.5 66t52.5 177v405h80v-408zM494 906l-148 -167h-40l126 206z" />
    <glyph glyph-name="Ucircumflex" unicode="&#xdb;" horiz-adv-x="730" 
d="M634 275q0 -128 -78 -205.5t-191 -77.5t-191 77.5t-78 205.5v408h80v-405q0 -111 52.5 -177t136.5 -66t136.5 66t52.5 177v405h80v-408zM491 739h-40l-86 98l-86 -98h-40l126 206z" />
    <glyph glyph-name="Udieresis" unicode="&#xdc;" horiz-adv-x="730" 
d="M634 275q0 -128 -78 -205.5t-191 -77.5t-191 77.5t-78 205.5v408h80v-405q0 -111 52.5 -177t136.5 -66t136.5 66t52.5 177v405h80v-408zM326 814q0 -22 -13.5 -36.5t-34.5 -14.5q-22 0 -35.5 14.5t-13.5 36.5t13.5 36.5t35.5 14.5q21 0 34.5 -14.5t13.5 -36.5zM501 814
q0 -22 -13.5 -36.5t-34.5 -14.5q-22 0 -35.5 14.5t-13.5 36.5t13.5 36.5t35.5 14.5q21 0 34.5 -14.5t13.5 -36.5z" />
    <glyph glyph-name="Yacute" unicode="&#xdd;" horiz-adv-x="570" 
d="M582 683l-256 -379v-304h-82v304l-256 379h98l219 -331l208 331h69zM440 906l-148 -167h-40l126 206z" />
    <glyph glyph-name="Thorn" unicode="&#xde;" horiz-adv-x="600" 
d="M177 0h-77v683h77v-141h159q93 0 152.5 -56t59.5 -141t-59.5 -140.5t-152.5 -55.5h-159v-149zM466 345q0 70 -43.5 112t-107.5 42h-138v-308h138q64 0 107.5 42t43.5 112z" />
    <glyph glyph-name="germandbls" unicode="&#xdf;" horiz-adv-x="558" 
d="M277 377q0 -21 25.5 -39.5t62.5 -35.5t74 -37t62.5 -52t25.5 -72q0 -66 -44.5 -107.5t-124.5 -41.5q-75 0 -115.5 36.5t-51.5 94.5l59 15q15 -109 108 -109q44 0 69 28t25 70q0 30 -25 53.5t-60 40t-70.5 33.5t-60.5 41t-25 55q0 24 16 45t39.5 37.5t46.5 34.5t39 44
t16 57q0 32 -9.5 54.5t-24.5 32.5t-28.5 13.5t-28.5 3.5q-53 0 -84.5 -44t-31.5 -139v-489h-75v446l-86 -1v45l86 -1q0 115 55 166t136 53q26 0 51.5 -6.5t51 -21t41.5 -44t16 -69.5q0 -41 -25 -72t-55 -46t-55 -33.5t-25 -38.5z" />
    <glyph glyph-name="agrave" unicode="&#xe0;" horiz-adv-x="535" 
d="M473 0h-78q-16 27 -16 80q-29 -36 -77 -62t-101 -26q-70 0 -114 36t-44 96q0 34 13.5 61.5t48 55.5t102 51t167.5 39q0 65 -36 97.5t-80 32.5q-85 0 -142 -88l-51 50q91 75 193 75q82 0 138 -47t53 -155l-5 -165q-2 -68 29 -131zM372 194l2 102q-78 -13 -130.5 -32
t-78 -42t-35 -44t-9.5 -47q0 -43 27.5 -67.5t77.5 -24.5q58 0 102 41t44 114zM344 566h-40l-148 167l62 39z" />
    <glyph glyph-name="aacute" unicode="&#xe1;" horiz-adv-x="535" 
d="M473 0h-78q-16 27 -16 80q-29 -36 -77 -62t-101 -26q-70 0 -114 36t-44 96q0 34 13.5 61.5t48 55.5t102 51t167.5 39q0 65 -36 97.5t-80 32.5q-85 0 -142 -88l-51 50q91 75 193 75q82 0 138 -47t53 -155l-5 -165q-2 -68 29 -131zM372 194l2 102q-78 -13 -130.5 -32
t-78 -42t-35 -44t-9.5 -47q0 -43 27.5 -67.5t77.5 -24.5q58 0 102 41t44 114zM394 733l-148 -167h-40l126 206z" />
    <glyph glyph-name="acircumflex" unicode="&#xe2;" horiz-adv-x="535" 
d="M473 0h-78q-16 27 -16 80q-29 -36 -77 -62t-101 -26q-70 0 -114 36t-44 96q0 34 13.5 61.5t48 55.5t102 51t167.5 39q0 65 -36 97.5t-80 32.5q-85 0 -142 -88l-51 50q91 75 193 75q82 0 138 -47t53 -155l-5 -165q-2 -68 29 -131zM372 194l2 102q-78 -13 -130.5 -32
t-78 -42t-35 -44t-9.5 -47q0 -43 27.5 -67.5t77.5 -24.5q58 0 102 41t44 114zM391 566h-40l-86 98l-86 -98h-40l126 206z" />
    <glyph glyph-name="atilde" unicode="&#xe3;" horiz-adv-x="535" 
d="M473 0h-78q-16 27 -16 80q-29 -36 -77 -62t-101 -26q-70 0 -114 36t-44 96q0 34 13.5 61.5t48 55.5t102 51t167.5 39q0 65 -36 97.5t-80 32.5q-85 0 -142 -88l-51 50q91 75 193 75q82 0 138 -47t53 -155l-5 -165q-2 -68 29 -131zM372 194l2 102q-78 -13 -130.5 -32
t-78 -42t-35 -44t-9.5 -47q0 -43 27.5 -67.5t77.5 -24.5q58 0 102 41t44 114zM188 624q-24 0 -37.5 -14t-16.5 -28l-30 9q11 37 37.5 64.5t68.5 27.5q24 0 65.5 -18.5t68.5 -18.5q24 0 37.5 14t16.5 28l30 -9q-11 -37 -37.5 -64.5t-68.5 -27.5q-25 0 -66.5 18.5t-67.5 18.5z
" />
    <glyph glyph-name="adieresis" unicode="&#xe4;" horiz-adv-x="535" 
d="M473 0h-78q-16 27 -16 80q-29 -36 -77 -62t-101 -26q-70 0 -114 36t-44 96q0 34 13.5 61.5t48 55.5t102 51t167.5 39q0 65 -36 97.5t-80 32.5q-85 0 -142 -88l-51 50q91 75 193 75q82 0 138 -47t53 -155l-5 -165q-2 -68 29 -131zM372 194l2 102q-78 -13 -130.5 -32
t-78 -42t-35 -44t-9.5 -47q0 -43 27.5 -67.5t77.5 -24.5q58 0 102 41t44 114zM226 641q0 -22 -13.5 -36.5t-34.5 -14.5q-22 0 -35.5 14.5t-13.5 36.5t13.5 36.5t35.5 14.5q21 0 34.5 -14.5t13.5 -36.5zM401 641q0 -22 -13.5 -36.5t-34.5 -14.5q-22 0 -35.5 14.5t-13.5 36.5
t13.5 36.5t35.5 14.5q21 0 34.5 -14.5t13.5 -36.5z" />
    <glyph glyph-name="aring" unicode="&#xe5;" horiz-adv-x="535" 
d="M473 0h-78q-16 27 -16 80q-29 -36 -77 -62t-101 -26q-70 0 -114 36t-44 96q0 34 13.5 61.5t48 55.5t102 51t167.5 39q0 65 -36 97.5t-80 32.5q-85 0 -142 -88l-51 50q91 75 193 75q82 0 138 -47t53 -155l-5 -165q-2 -68 29 -131zM372 194l2 102q-78 -13 -130.5 -32
t-78 -42t-35 -44t-9.5 -47q0 -43 27.5 -67.5t77.5 -24.5q58 0 102 41t44 114zM383 682q0 -48 -35 -82t-83 -34q-49 0 -83.5 34t-34.5 82t34.5 82t83.5 34q48 0 83 -34t35 -82zM331 683q0 35 -19 59t-47 24t-47 -24t-19 -59t19 -59.5t47 -24.5t47 24.5t19 59.5z" />
    <glyph glyph-name="ae" unicode="&#xe6;" horiz-adv-x="883" 
d="M407 111q-90 -119 -206 -119q-70 0 -114 36t-44 96q0 34 13.5 61.5t47 53t102 39.5t168.5 14q8 87 -28 128t-88 41q-85 0 -142 -88l-51 50q91 75 193 75q123 0 168 -88q72 88 183 88q103 0 164.5 -68.5t61.5 -175.5h-388q-1 -105 54 -162t127 -57q39 0 75 15t48.5 25
t32.5 28l25 -27q-77 -84 -187 -84q-139 0 -215 119zM448 292h309q-6 77 -46.5 123.5t-101.5 46.5q-55 0 -105.5 -46t-55.5 -124zM372 194l2 60q-78 0 -131 -10t-78 -29t-34.5 -38.5t-9.5 -45.5q0 -43 27.5 -67.5t77.5 -24.5q58 0 102 41t44 114z" />
    <glyph glyph-name="ccedilla" unicode="&#xe7;" horiz-adv-x="521" 
d="M382 -138q0 -37 -34.5 -62.5t-111.5 -25.5l-62 6l11 42q29 -12 58 -12t49.5 13t20.5 37q0 23 -29 35.5t-70 3.5l41 96q-91 13 -149 83t-58 165q0 105 71.5 180t176.5 75q95 0 174 -59l-39 -47q-60 68 -135 68q-76 0 -123 -63t-47 -154q-1 -98 51 -153t122 -55q39 0 75 15
t48.5 25t32.5 28l25 -27q-77 -84 -187 -84h-7l-21 -50q45 0 81 -19.5t36 -60.5z" />
    <glyph glyph-name="egrave" unicode="&#xe8;" horiz-adv-x="562" 
d="M288 498q103 0 164.5 -68.5t61.5 -175.5h-388q-1 -105 54 -162t127 -57q39 0 75 15t48.5 25t32.5 28l25 -27q-77 -84 -187 -84q-106 0 -179.5 74t-73.5 184q0 104 71 176t169 72zM127 292h309q-6 77 -46.5 123.5t-101.5 46.5q-55 0 -105.5 -46t-55.5 -124zM366 566h-40
l-148 167l62 39z" />
    <glyph glyph-name="eacute" unicode="&#xe9;" horiz-adv-x="562" 
d="M288 498q103 0 164.5 -68.5t61.5 -175.5h-388q-1 -105 54 -162t127 -57q39 0 75 15t48.5 25t32.5 28l25 -27q-77 -84 -187 -84q-106 0 -179.5 74t-73.5 184q0 104 71 176t169 72zM127 292h309q-6 77 -46.5 123.5t-101.5 46.5q-55 0 -105.5 -46t-55.5 -124zM426 733
l-148 -167h-40l126 206z" />
    <glyph glyph-name="ecircumflex" unicode="&#xea;" horiz-adv-x="562" 
d="M288 498q103 0 164.5 -68.5t61.5 -175.5h-388q-1 -105 54 -162t127 -57q39 0 75 15t48.5 25t32.5 28l25 -27q-77 -84 -187 -84q-106 0 -179.5 74t-73.5 184q0 104 71 176t169 72zM127 292h309q-6 77 -46.5 123.5t-101.5 46.5q-55 0 -105.5 -46t-55.5 -124zM413 566h-40
l-86 98l-86 -98h-40l126 206z" />
    <glyph glyph-name="edieresis" unicode="&#xeb;" horiz-adv-x="562" 
d="M288 498q103 0 164.5 -68.5t61.5 -175.5h-388q-1 -105 54 -162t127 -57q39 0 75 15t48.5 25t32.5 28l25 -27q-77 -84 -187 -84q-106 0 -179.5 74t-73.5 184q0 104 71 176t169 72zM127 292h309q-6 77 -46.5 123.5t-101.5 46.5q-55 0 -105.5 -46t-55.5 -124zM248 641
q0 -22 -13.5 -36.5t-34.5 -14.5q-22 0 -35.5 14.5t-13.5 36.5t13.5 36.5t35.5 14.5q21 0 34.5 -14.5t13.5 -36.5zM423 641q0 -22 -13.5 -36.5t-34.5 -14.5q-22 0 -35.5 14.5t-13.5 36.5t13.5 36.5t35.5 14.5q21 0 34.5 -14.5t13.5 -36.5z" />
    <glyph glyph-name="igrave" unicode="&#xec;" horiz-adv-x="269" 
d="M172 0h-74v490h74v-490zM204 566h-40l-148 167l62 39z" />
    <glyph glyph-name="iacute" unicode="&#xed;" horiz-adv-x="269" 
d="M172 0h-74v490h74v-490zM264 733l-148 -167h-40l126 206z" />
    <glyph glyph-name="icircumflex" unicode="&#xee;" horiz-adv-x="269" 
d="M172 0h-74v490h74v-490zM261 566h-40l-86 98l-86 -98h-40l126 206z" />
    <glyph glyph-name="idieresis" unicode="&#xef;" horiz-adv-x="269" 
d="M172 0h-74v490h74v-490zM96 641q0 -22 -13.5 -36.5t-34.5 -14.5q-22 0 -35.5 14.5t-13.5 36.5t13.5 36.5t35.5 14.5q21 0 34.5 -14.5t13.5 -36.5zM271 641q0 -22 -13.5 -36.5t-34.5 -14.5q-22 0 -35.5 14.5t-13.5 36.5t13.5 36.5t35.5 14.5q21 0 34.5 -14.5t13.5 -36.5z
" />
    <glyph glyph-name="eth" unicode="&#xf0;" horiz-adv-x="569" 
d="M290 630l132 62l21 -45l-112 -52q190 -168 190 -345q0 -120 -68.5 -189t-171.5 -69q-97 0 -165 68t-68 165q0 99 72.5 164t167.5 65q54 0 107 -29q-36 66 -128 140l-146 -68l-21 45l123 57q-35 27 -70 47l57 42q50 -33 80 -58zM449 222q0 80 -47 136.5t-114 56.5
q-66 0 -113.5 -56.5t-47.5 -136.5q0 -81 47 -137t114 -56t114 56t47 137z" />
    <glyph glyph-name="ntilde" unicode="&#xf1;" horiz-adv-x="593" 
d="M436 0v291q0 84 -39 118t-97 34q-61 0 -100.5 -40t-39.5 -107v-296h-74v490h74v-81q21 35 64.5 62t102.5 27q35 0 65 -9t58 -30.5t44 -64t16 -101.5v-293h-74zM225 624q-24 0 -37.5 -14t-16.5 -28l-30 9q11 37 37.5 64.5t68.5 27.5q24 0 65.5 -18.5t68.5 -18.5
q24 0 37.5 14t16.5 28l30 -9q-11 -37 -37.5 -64.5t-68.5 -27.5q-25 0 -66.5 18.5t-67.5 18.5z" />
    <glyph glyph-name="ograve" unicode="&#xf2;" horiz-adv-x="584" 
d="M536 245q0 -105 -71.5 -179t-172.5 -74t-172.5 74t-71.5 179q0 104 71.5 178.5t172.5 74.5t172.5 -74.5t71.5 -178.5zM458 246q0 90 -48 153t-118 63t-118 -63t-48 -153q0 -91 48 -154t118 -63t118 63t48 154zM361 566h-40l-148 167l62 39z" />
    <glyph glyph-name="oacute" unicode="&#xf3;" horiz-adv-x="584" 
d="M536 245q0 -105 -71.5 -179t-172.5 -74t-172.5 74t-71.5 179q0 104 71.5 178.5t172.5 74.5t172.5 -74.5t71.5 -178.5zM458 246q0 90 -48 153t-118 63t-118 -63t-48 -153q0 -91 48 -154t118 -63t118 63t48 154zM421 733l-148 -167h-40l126 206z" />
    <glyph glyph-name="ocircumflex" unicode="&#xf4;" horiz-adv-x="584" 
d="M536 245q0 -105 -71.5 -179t-172.5 -74t-172.5 74t-71.5 179q0 104 71.5 178.5t172.5 74.5t172.5 -74.5t71.5 -178.5zM458 246q0 90 -48 153t-118 63t-118 -63t-48 -153q0 -91 48 -154t118 -63t118 63t48 154zM418 566h-40l-86 98l-86 -98h-40l126 206z" />
    <glyph glyph-name="otilde" unicode="&#xf5;" horiz-adv-x="584" 
d="M536 245q0 -105 -71.5 -179t-172.5 -74t-172.5 74t-71.5 179q0 104 71.5 178.5t172.5 74.5t172.5 -74.5t71.5 -178.5zM458 246q0 90 -48 153t-118 63t-118 -63t-48 -153q0 -91 48 -154t118 -63t118 63t48 154zM225 624q-24 0 -37.5 -14t-16.5 -28l-30 9q11 37 37.5 64.5
t68.5 27.5q24 0 65.5 -18.5t68.5 -18.5q24 0 37.5 14t16.5 28l30 -9q-11 -37 -37.5 -64.5t-68.5 -27.5q-25 0 -66.5 18.5t-67.5 18.5z" />
    <glyph glyph-name="odieresis" unicode="&#xf6;" horiz-adv-x="584" 
d="M536 245q0 -105 -71.5 -179t-172.5 -74t-172.5 74t-71.5 179q0 104 71.5 178.5t172.5 74.5t172.5 -74.5t71.5 -178.5zM458 246q0 90 -48 153t-118 63t-118 -63t-48 -153q0 -91 48 -154t118 -63t118 63t48 154zM253 641q0 -22 -13.5 -36.5t-34.5 -14.5q-22 0 -35.5 14.5
t-13.5 36.5t13.5 36.5t35.5 14.5q21 0 34.5 -14.5t13.5 -36.5zM428 641q0 -22 -13.5 -36.5t-34.5 -14.5q-22 0 -35.5 14.5t-13.5 36.5t13.5 36.5t35.5 14.5q21 0 34.5 -14.5t13.5 -36.5z" />
    <glyph glyph-name="divide" unicode="&#xf7;" horiz-adv-x="600" 
d="M546 218h-492v68h492v-68zM348 461q0 -22 -13.5 -36.5t-34.5 -14.5q-22 0 -35.5 14.5t-13.5 36.5t13.5 36.5t35.5 14.5q21 0 34.5 -14.5t13.5 -36.5zM348 43q0 -22 -13.5 -36.5t-34.5 -14.5q-22 0 -35.5 14.5t-13.5 36.5t13.5 36.5t35.5 14.5q21 0 34.5 -14.5t13.5 -36.5
z" />
    <glyph glyph-name="oslash" unicode="&#xf8;" horiz-adv-x="584" 
d="M13 -34l95 111q-60 71 -60 168q0 104 71.5 178.5t172.5 74.5q76 0 138 -46l72 84h67l-101 -117q68 -74 68 -174q0 -105 -71.5 -179t-172.5 -74q-83 0 -147 50l-65 -76h-67zM458 246q0 70 -30 125l-247 -288q46 -54 111 -54q70 0 118 63t48 154zM126 246q0 -66 26 -118
l245 285q-47 49 -105 49q-70 0 -118 -63t-48 -153z" />
    <glyph glyph-name="ugrave" unicode="&#xf9;" horiz-adv-x="593" 
d="M157 490v-291q0 -84 39.5 -118t97.5 -34q61 0 100 39.5t39 107.5v296h74v-490h-74v81q-21 -35 -64.5 -62t-102.5 -27q-35 0 -65 9t-58 30.5t-44 64t-16 101.5v293h74zM366 566h-40l-148 167l62 39z" />
    <glyph glyph-name="uacute" unicode="&#xfa;" horiz-adv-x="593" 
d="M157 490v-291q0 -84 39.5 -118t97.5 -34q61 0 100 39.5t39 107.5v296h74v-490h-74v81q-21 -35 -64.5 -62t-102.5 -27q-35 0 -65 9t-58 30.5t-44 64t-16 101.5v293h74zM426 733l-148 -167h-40l126 206z" />
    <glyph glyph-name="ucircumflex" unicode="&#xfb;" horiz-adv-x="593" 
d="M157 490v-291q0 -84 39.5 -118t97.5 -34q61 0 100 39.5t39 107.5v296h74v-490h-74v81q-21 -35 -64.5 -62t-102.5 -27q-35 0 -65 9t-58 30.5t-44 64t-16 101.5v293h74zM423 566h-40l-86 98l-86 -98h-40l126 206z" />
    <glyph glyph-name="udieresis" unicode="&#xfc;" horiz-adv-x="593" 
d="M157 490v-291q0 -84 39.5 -118t97.5 -34q61 0 100 39.5t39 107.5v296h74v-490h-74v81q-21 -35 -64.5 -62t-102.5 -27q-35 0 -65 9t-58 30.5t-44 64t-16 101.5v293h74zM258 641q0 -22 -13.5 -36.5t-34.5 -14.5q-22 0 -35.5 14.5t-13.5 36.5t13.5 36.5t35.5 14.5
q21 0 34.5 -14.5t13.5 -36.5zM433 641q0 -22 -13.5 -36.5t-34.5 -14.5q-22 0 -35.5 14.5t-13.5 36.5t13.5 36.5t35.5 14.5q21 0 34.5 -14.5t13.5 -36.5z" />
    <glyph glyph-name="yacute" unicode="&#xfd;" horiz-adv-x="517" 
d="M509 490l-354 -724l-67 37q10 9 26 27t54.5 74.5t65.5 115.5l-229 470h86l183 -391l179 391h56zM412 733l-148 -167h-40l126 206z" />
    <glyph glyph-name="thorn" unicode="&#xfe;" horiz-adv-x="609" 
d="M86 683h72v-273q23 38 70 63t101 25q97 0 164.5 -74.5t67.5 -178.5t-67.5 -178.5t-164.5 -74.5q-54 0 -101 25t-70 63v-273h-72v876zM158 245q0 -99 45 -157.5t119 -58.5q69 0 115 62.5t46 153.5t-46 154t-115 63q-74 0 -119 -60t-45 -157z" />
    <glyph glyph-name="ydieresis" unicode="&#xff;" horiz-adv-x="517" 
d="M509 490l-354 -724l-67 37q10 9 26 27t54.5 74.5t65.5 115.5l-229 470h86l183 -391l179 391h56zM225 641q0 -22 -13.5 -36.5t-34.5 -14.5q-22 0 -35.5 14.5t-13.5 36.5t13.5 36.5t35.5 14.5q21 0 34.5 -14.5t13.5 -36.5zM400 641q0 -22 -13.5 -36.5t-34.5 -14.5
q-22 0 -35.5 14.5t-13.5 36.5t13.5 36.5t35.5 14.5q21 0 34.5 -14.5t13.5 -36.5z" />
    <glyph glyph-name="Amacron" unicode="&#x100;" horiz-adv-x="656" 
d="M656 0h-85l-111 242h-294l-107 -242h-59l328 706zM441 285l-130 284l-126 -284h256zM458 782h-260v54h260v-54z" />
    <glyph glyph-name="amacron" unicode="&#x101;" horiz-adv-x="535" 
d="M473 0h-78q-16 27 -16 80q-29 -36 -77 -62t-101 -26q-70 0 -114 36t-44 96q0 34 13.5 61.5t48 55.5t102 51t167.5 39q0 65 -36 97.5t-80 32.5q-85 0 -142 -88l-51 50q91 75 193 75q82 0 138 -47t53 -155l-5 -165q-2 -68 29 -131zM372 194l2 102q-78 -13 -130.5 -32
t-78 -42t-35 -44t-9.5 -47q0 -43 27.5 -67.5t77.5 -24.5q58 0 102 41t44 114zM395 609h-260v54h260v-54z" />
    <glyph glyph-name="Abreve" unicode="&#x102;" horiz-adv-x="656" 
d="M656 0h-85l-111 242h-294l-107 -242h-59l328 706zM441 285l-130 284l-126 -284h256zM328 757q-54 0 -94 40.5t-40 98.5h36q5 -35 31.5 -56.5t66.5 -21.5t66.5 21.5t31.5 56.5h36q0 -58 -40 -98.5t-94 -40.5z" />
    <glyph glyph-name="abreve" unicode="&#x103;" horiz-adv-x="535" 
d="M473 0h-78q-16 27 -16 80q-29 -36 -77 -62t-101 -26q-70 0 -114 36t-44 96q0 34 13.5 61.5t48 55.5t102 51t167.5 39q0 65 -36 97.5t-80 32.5q-85 0 -142 -88l-51 50q91 75 193 75q82 0 138 -47t53 -155l-5 -165q-2 -68 29 -131zM372 194l2 102q-78 -13 -130.5 -32
t-78 -42t-35 -44t-9.5 -47q0 -43 27.5 -67.5t77.5 -24.5q58 0 102 41t44 114zM265 584q-54 0 -94 40.5t-40 98.5h36q5 -35 31.5 -56.5t66.5 -21.5t66.5 21.5t31.5 56.5h36q0 -58 -40 -98.5t-94 -40.5z" />
    <glyph glyph-name="Aogonek" unicode="&#x104;" horiz-adv-x="656" 
d="M645 -209q-32 -15 -76 -15q-46 0 -78 24.5t-32 65.5q0 40 32 75t80 59l-111 242h-294l-107 -242h-59l328 706l328 -706h-37q-87 -70 -87 -123q0 -29 18 -45t47 -16q21 0 39 6zM441 285l-130 284l-126 -284h256z" />
    <glyph glyph-name="aogonek" unicode="&#x105;" horiz-adv-x="535" 
d="M469 -209q-32 -15 -76 -15q-46 0 -78 24.5t-32 65.5q0 40 32 75t80 59q-16 27 -16 80q-29 -36 -77 -62t-101 -26q-70 0 -114 36t-44 96q0 34 13.5 61.5t48 55.5t102 51t167.5 39q0 65 -36 97.5t-80 32.5q-85 0 -142 -88l-51 50q91 75 193 75q82 0 138 -47t53 -155
l-5 -165q-2 -68 29 -131h-30q-87 -70 -87 -123q0 -29 18 -45t47 -16q21 0 39 6zM372 194l2 102q-78 -13 -130.5 -32t-78 -42t-35 -44t-9.5 -47q0 -43 27.5 -67.5t77.5 -24.5q58 0 102 41t44 114z" />
    <glyph glyph-name="Cacute" unicode="&#x106;" horiz-adv-x="680" 
d="M52 341q0 146 100 248t237 102q129 0 234 -78l-45 -55q-83 91 -189 91q-109 0 -181.5 -90t-72.5 -218q0 -130 73.5 -218t177.5 -88q113 0 219 95l26 -28q-43 -44 -107.5 -77t-137.5 -33q-138 0 -236 100t-98 249zM519 906l-148 -167h-40l126 206z" />
    <glyph glyph-name="cacute" unicode="&#x107;" horiz-adv-x="521" 
d="M126 243q-1 -98 51 -153t122 -55q39 0 75 15t48.5 25t32.5 28l25 -27q-77 -84 -187 -84q-104 0 -174.5 72.5t-70.5 178.5q0 105 71.5 180t176.5 75q95 0 174 -59l-39 -47q-60 68 -135 68q-76 0 -123 -63t-47 -154zM425 733l-148 -167h-40l126 206z" />
    <glyph glyph-name="Ccircumflex" unicode="&#x108;" horiz-adv-x="680" 
d="M52 341q0 146 100 248t237 102q129 0 234 -78l-45 -55q-83 91 -189 91q-109 0 -181.5 -90t-72.5 -218q0 -130 73.5 -218t177.5 -88q113 0 219 95l26 -28q-43 -44 -107.5 -77t-137.5 -33q-138 0 -236 100t-98 249zM505 739h-40l-86 98l-86 -98h-40l126 206z" />
    <glyph glyph-name="ccircumflex" unicode="&#x109;" horiz-adv-x="521" 
d="M126 243q-1 -98 51 -153t122 -55q39 0 75 15t48.5 25t32.5 28l25 -27q-77 -84 -187 -84q-104 0 -174.5 72.5t-70.5 178.5q0 105 71.5 180t176.5 75q95 0 174 -59l-39 -47q-60 68 -135 68q-76 0 -123 -63t-47 -154zM412 566h-40l-86 98l-86 -98h-40l126 206z" />
    <glyph glyph-name="uni010A" unicode="&#x10a;" horiz-adv-x="680" 
d="M52 341q0 146 100 248t237 102q129 0 234 -78l-45 -55q-83 91 -189 91q-109 0 -181.5 -90t-72.5 -218q0 -130 73.5 -218t177.5 -88q113 0 219 95l26 -28q-43 -44 -107.5 -77t-137.5 -33q-138 0 -236 100t-98 249zM428 814q0 -22 -13.5 -36.5t-34.5 -14.5
q-22 0 -35.5 14.5t-13.5 36.5t13.5 36.5t35.5 14.5q21 0 34.5 -14.5t13.5 -36.5z" />
    <glyph glyph-name="uni010B" unicode="&#x10b;" horiz-adv-x="521" 
d="M126 243q-1 -98 51 -153t122 -55q39 0 75 15t48.5 25t32.5 28l25 -27q-77 -84 -187 -84q-104 0 -174.5 72.5t-70.5 178.5q0 105 71.5 180t176.5 75q95 0 174 -59l-39 -47q-60 68 -135 68q-76 0 -123 -63t-47 -154zM335 641q0 -22 -13.5 -36.5t-34.5 -14.5
q-22 0 -35.5 14.5t-13.5 36.5t13.5 36.5t35.5 14.5q21 0 34.5 -14.5t13.5 -36.5z" />
    <glyph glyph-name="Ccaron" unicode="&#x10c;" horiz-adv-x="680" 
d="M52 341q0 146 100 248t237 102q129 0 234 -78l-45 -55q-83 91 -189 91q-109 0 -181.5 -90t-72.5 -218q0 -130 73.5 -218t177.5 -88q113 0 219 95l26 -28q-43 -44 -107.5 -77t-137.5 -33q-138 0 -236 100t-98 249zM476 923h40l-126 -206l-126 206h40l86 -98z" />
    <glyph glyph-name="ccaron" unicode="&#x10d;" horiz-adv-x="521" 
d="M126 243q-1 -98 51 -153t122 -55q39 0 75 15t48.5 25t32.5 28l25 -27q-77 -84 -187 -84q-104 0 -174.5 72.5t-70.5 178.5q0 105 71.5 180t176.5 75q95 0 174 -59l-39 -47q-60 68 -135 68q-76 0 -123 -63t-47 -154zM382 750h40l-126 -206l-126 206h40l86 -98z" />
    <glyph glyph-name="Dcaron" unicode="&#x10e;" horiz-adv-x="716" 
d="M664 341q0 -145 -99.5 -243t-245.5 -98h-219v683h219q146 0 245.5 -98t99.5 -244zM581 341q0 134 -79 216.5t-195 82.5h-130v-597h130q116 0 195 82.5t79 215.5zM415 923h40l-126 -206l-126 206h40l86 -98z" />
    <glyph glyph-name="dcaron" unicode="&#x10f;" horiz-adv-x="629" 
d="M734 753l-117 -175h-41l93 206zM523 0h-72v80q-23 -38 -70 -63t-101 -25q-97 0 -164.5 74.5t-67.5 178.5t67.5 178.5t164.5 74.5q54 0 101 -25t70 -63v273h72v-683zM451 245q0 98 -45 157t-119 59q-69 0 -115 -62.5t-46 -153.5t46 -154t115 -63q74 0 119 60t45 157z" />
    <glyph glyph-name="Dcroat" unicode="&#x110;" horiz-adv-x="716" 
d="M664 341q0 -145 -99.5 -243t-245.5 -98h-219v327h-100v49h100v307h219q146 0 245.5 -98t99.5 -244zM355 327h-178v-284h130q116 0 195 82.5t79 215.5q0 134 -79 216.5t-195 82.5h-130v-264h178v-49z" />
    <glyph glyph-name="dcroat" unicode="&#x111;" horiz-adv-x="609" 
d="M523 0h-72v80q-23 -38 -70 -63t-101 -25q-97 0 -164.5 74.5t-67.5 178.5t67.5 178.5t164.5 74.5q54 0 101 -25t70 -63v150h-183v45h183v88h72v-88h65v-45h-65v-560zM451 245q0 98 -45 157t-119 59q-69 0 -115 -62.5t-46 -153.5t46 -154t115 -63q74 0 119 60t45 157z" />
    <glyph glyph-name="Emacron" unicode="&#x112;" horiz-adv-x="580" 
d="M502 0h-402v683h402v-49l-325 6v-273l312 2v-47l-312 2v-281l325 6v-49zM432 782h-260v54h260v-54z" />
    <glyph glyph-name="emacron" unicode="&#x113;" horiz-adv-x="562" 
d="M288 498q103 0 164.5 -68.5t61.5 -175.5h-388q-1 -105 54 -162t127 -57q39 0 75 15t48.5 25t32.5 28l25 -27q-77 -84 -187 -84q-106 0 -179.5 74t-73.5 184q0 104 71 176t169 72zM127 292h309q-6 77 -46.5 123.5t-101.5 46.5q-55 0 -105.5 -46t-55.5 -124zM417 609h-260
v54h260v-54z" />
    <glyph glyph-name="uni0116" unicode="&#x116;" horiz-adv-x="580" 
d="M502 0h-402v683h402v-49l-325 6v-273l312 2v-47l-312 2v-281l325 6v-49zM351 814q0 -22 -13.5 -36.5t-34.5 -14.5q-22 0 -35.5 14.5t-13.5 36.5t13.5 36.5t35.5 14.5q21 0 34.5 -14.5t13.5 -36.5z" />
    <glyph glyph-name="uni0117" unicode="&#x117;" horiz-adv-x="562" 
d="M288 498q103 0 164.5 -68.5t61.5 -175.5h-388q-1 -105 54 -162t127 -57q39 0 75 15t48.5 25t32.5 28l25 -27q-77 -84 -187 -84q-106 0 -179.5 74t-73.5 184q0 104 71 176t169 72zM127 292h309q-6 77 -46.5 123.5t-101.5 46.5q-55 0 -105.5 -46t-55.5 -124zM336 641
q0 -22 -13.5 -36.5t-34.5 -14.5q-22 0 -35.5 14.5t-13.5 36.5t13.5 36.5t35.5 14.5q21 0 34.5 -14.5t13.5 -36.5z" />
    <glyph glyph-name="Eogonek" unicode="&#x118;" horiz-adv-x="580" 
d="M502 0h-56q-87 -70 -87 -123q0 -29 18 -45t47 -16q21 0 39 6l9 -31q-32 -15 -76 -15q-46 0 -78 24.5t-32 65.5q0 40 32 75t80 59h-298v683h402v-49l-325 6v-273l312 2v-47l-312 2v-281l325 6v-49z" />
    <glyph glyph-name="eogonek" unicode="&#x119;" horiz-adv-x="562" 
d="M389 -209q-32 -15 -76 -15q-46 0 -78 24.5t-32 65.5q0 72 97 126q-106 1 -179 75t-73 183q0 104 71 176t169 72q103 0 164.5 -68.5t61.5 -175.5h-388q-1 -105 54 -162t127 -57q39 0 75 15t48.5 25t32.5 28l25 -27q-50 -56 -125 -76q-87 -70 -87 -123q0 -29 18 -45t47 -16
q21 0 39 6zM127 292h309q-6 77 -46.5 123.5t-101.5 46.5q-55 0 -105.5 -46t-55.5 -124z" />
    <glyph glyph-name="Ecaron" unicode="&#x11a;" horiz-adv-x="580" 
d="M502 0h-402v683h402v-49l-325 6v-273l312 2v-47l-312 2v-281l325 6v-49zM388 923h40l-126 -206l-126 206h40l86 -98z" />
    <glyph glyph-name="ecaron" unicode="&#x11b;" horiz-adv-x="562" 
d="M288 498q103 0 164.5 -68.5t61.5 -175.5h-388q-1 -105 54 -162t127 -57q39 0 75 15t48.5 25t32.5 28l25 -27q-77 -84 -187 -84q-106 0 -179.5 74t-73.5 184q0 104 71 176t169 72zM127 292h309q-6 77 -46.5 123.5t-101.5 46.5q-55 0 -105.5 -46t-55.5 -124zM373 750h40
l-126 -206l-126 206h40l86 -98z" />
    <glyph glyph-name="Gcircumflex" unicode="&#x11c;" horiz-adv-x="787" 
d="M734 338q0 -144 -93 -245t-239 -101q-145 0 -247.5 102.5t-102.5 246.5q0 145 102.5 247.5t247.5 102.5q166 0 269 -125l-52 -43q-45 60 -101.5 93t-115.5 33q-112 0 -189.5 -90t-77.5 -219q0 -127 77.5 -216.5t189.5 -89.5q107 0 178 80t71 193l-247 -2v47l330 -2v-12z
M522 739h-40l-86 98l-86 -98h-40l126 206z" />
    <glyph glyph-name="gcircumflex" unicode="&#x11d;" horiz-adv-x="609" 
d="M451 245q0 97 -45 157t-119 60q-69 0 -115 -63t-46 -154t46 -153.5t115 -62.5q74 0 119 59t45 157zM523 490v-468q0 -92 -62 -157.5t-176 -65.5q-54 0 -99 14t-67.5 28.5t-51.5 38.5l44 46q72 -90 174 -90q72 0 119 46t47 149v49q-23 -38 -70 -63t-101 -25
q-97 0 -164.5 74.5t-67.5 178.5t67.5 178.5t164.5 74.5q54 0 101 -25t70 -63v80h72zM415 566h-40l-86 98l-86 -98h-40l126 206z" />
    <glyph glyph-name="Gbreve" unicode="&#x11e;" horiz-adv-x="787" 
d="M734 338q0 -144 -93 -245t-239 -101q-145 0 -247.5 102.5t-102.5 246.5q0 145 102.5 247.5t247.5 102.5q166 0 269 -125l-52 -43q-45 60 -101.5 93t-115.5 33q-112 0 -189.5 -90t-77.5 -219q0 -127 77.5 -216.5t189.5 -89.5q107 0 178 80t71 193l-247 -2v47l330 -2v-12z
M396 757q-54 0 -94 40.5t-40 98.5h36q5 -35 31.5 -56.5t66.5 -21.5t66.5 21.5t31.5 56.5h36q0 -58 -40 -98.5t-94 -40.5z" />
    <glyph glyph-name="gbreve" unicode="&#x11f;" horiz-adv-x="609" 
d="M451 245q0 97 -45 157t-119 60q-69 0 -115 -63t-46 -154t46 -153.5t115 -62.5q74 0 119 59t45 157zM523 490v-468q0 -92 -62 -157.5t-176 -65.5q-54 0 -99 14t-67.5 28.5t-51.5 38.5l44 46q72 -90 174 -90q72 0 119 46t47 149v49q-23 -38 -70 -63t-101 -25
q-97 0 -164.5 74.5t-67.5 178.5t67.5 178.5t164.5 74.5q54 0 101 -25t70 -63v80h72zM291 584q-54 0 -94 40.5t-40 98.5h36q5 -35 31.5 -56.5t66.5 -21.5t66.5 21.5t31.5 56.5h36q0 -58 -40 -98.5t-94 -40.5z" />
    <glyph glyph-name="uni0120" unicode="&#x120;" horiz-adv-x="787" 
d="M734 338q0 -144 -93 -245t-239 -101q-145 0 -247.5 102.5t-102.5 246.5q0 145 102.5 247.5t247.5 102.5q166 0 269 -125l-52 -43q-45 60 -101.5 93t-115.5 33q-112 0 -189.5 -90t-77.5 -219q0 -127 77.5 -216.5t189.5 -89.5q107 0 178 80t71 193l-247 -2v47l330 -2v-12z
M445 814q0 -22 -13.5 -36.5t-34.5 -14.5q-22 0 -35.5 14.5t-13.5 36.5t13.5 36.5t35.5 14.5q21 0 34.5 -14.5t13.5 -36.5z" />
    <glyph glyph-name="uni0121" unicode="&#x121;" horiz-adv-x="609" 
d="M451 245q0 97 -45 157t-119 60q-69 0 -115 -63t-46 -154t46 -153.5t115 -62.5q74 0 119 59t45 157zM523 490v-468q0 -92 -62 -157.5t-176 -65.5q-54 0 -99 14t-67.5 28.5t-51.5 38.5l44 46q72 -90 174 -90q72 0 119 46t47 149v49q-23 -38 -70 -63t-101 -25
q-97 0 -164.5 74.5t-67.5 178.5t67.5 178.5t164.5 74.5q54 0 101 -25t70 -63v80h72zM338 641q0 -22 -13.5 -36.5t-34.5 -14.5q-22 0 -35.5 14.5t-13.5 36.5t13.5 36.5t35.5 14.5q21 0 34.5 -14.5t13.5 -36.5z" />
    <glyph glyph-name="uni0122" unicode="&#x122;" horiz-adv-x="787" 
d="M472 -71l-117 -175h-41l93 206zM734 338q0 -144 -93 -245t-239 -101q-145 0 -247.5 102.5t-102.5 246.5q0 145 102.5 247.5t247.5 102.5q166 0 269 -125l-52 -43q-45 60 -101.5 93t-115.5 33q-112 0 -189.5 -90t-77.5 -219q0 -127 77.5 -216.5t189.5 -89.5q107 0 178 80
t71 193l-247 -2v47l330 -2v-12z" />
    <glyph glyph-name="uni0123" unicode="&#x123;" horiz-adv-x="609" 
d="M237 597l117 175h41l-93 -206zM451 245q0 97 -45 157t-119 60q-69 0 -115 -63t-46 -154t46 -153.5t115 -62.5q74 0 119 59t45 157zM523 490v-468q0 -92 -62 -157.5t-176 -65.5q-54 0 -99 14t-67.5 28.5t-51.5 38.5l44 46q72 -90 174 -90q72 0 119 46t47 149v49
q-23 -38 -70 -63t-101 -25q-97 0 -164.5 74.5t-67.5 178.5t67.5 178.5t164.5 74.5q54 0 101 -25t70 -63v80h72z" />
    <glyph glyph-name="Hcircumflex" unicode="&#x124;" horiz-adv-x="712" 
d="M612 0h-77v330h-358v-330h-77v683h77v-310h358v310h77v-683zM482 739h-40l-86 98l-86 -98h-40l126 206z" />
    <glyph glyph-name="hcircumflex" unicode="&#x125;" horiz-adv-x="593" 
d="M436 0v291q0 84 -39 118t-97 34q-61 0 -100.5 -40t-39.5 -107v-296h-74v683h74v-274q21 35 64.5 62t102.5 27q35 0 65 -9t58 -30.5t44 -64t16 -101.5v-293h-74zM252 739h-40l-86 98l-86 -98h-40l126 206z" />
    <glyph glyph-name="Hbar" unicode="&#x126;" horiz-adv-x="712" 
d="M612 0h-77v330h-358v-330h-77v500h-77v45h77v138h77v-138h358v138h77v-138h77v-45h-77v-500zM177 373h358v127h-358v-127z" />
    <glyph glyph-name="hbar" unicode="&#x127;" horiz-adv-x="593" 
d="M86 560h-65v45h65v88h74v-88h181v-45h-181v-151q21 35 64.5 62t102.5 27q35 0 65 -9t58 -30.5t44 -64t16 -101.5v-293h-74v291q0 84 -39 118t-97 34q-61 0 -100.5 -40t-39.5 -107v-296h-74v560z" />
    <glyph glyph-name="Itilde" unicode="&#x128;" horiz-adv-x="302" 
d="M190 0h-78v683h78v-683zM83 797q-24 0 -37.5 -14t-16.5 -28l-30 9q11 37 37.5 64.5t68.5 27.5q24 0 65.5 -18.5t68.5 -18.5q24 0 37.5 14t16.5 28l30 -9q-11 -37 -37.5 -64.5t-68.5 -27.5q-25 0 -66.5 18.5t-67.5 18.5z" />
    <glyph glyph-name="itilde" unicode="&#x129;" horiz-adv-x="269" 
d="M172 0h-74v490h74v-490zM65 624q-24 0 -37.5 -14t-16.5 -28l-30 9q11 37 37.5 64.5t68.5 27.5q24 0 65.5 -18.5t68.5 -18.5q24 0 37.5 14t16.5 28l30 -9q-11 -37 -37.5 -64.5t-68.5 -27.5q-25 0 -66.5 18.5t-67.5 18.5z" />
    <glyph glyph-name="Imacron" unicode="&#x12a;" horiz-adv-x="302" 
d="M190 0h-78v683h78v-683zM280 782h-260v54h260v-54z" />
    <glyph glyph-name="imacron" unicode="&#x12b;" horiz-adv-x="269" 
d="M172 0h-74v490h74v-490zM265 609h-260v54h260v-54z" />
    <glyph glyph-name="Iogonek" unicode="&#x12e;" horiz-adv-x="302" 
d="M216 -209q-32 -15 -76 -15q-46 0 -78 24.5t-32 65.5q0 40 32 75t80 59h-30v683h78v-683q-87 -70 -87 -123q0 -29 18 -45t47 -16q21 0 39 6z" />
    <glyph glyph-name="iogonek" unicode="&#x12f;" horiz-adv-x="269" 
d="M198 -209q-32 -15 -76 -15q-46 0 -78 24.5t-32 65.5q0 40 32 75t80 59h-26v490h74v-490q-87 -70 -87 -123q0 -29 18 -45t47 -16q21 0 39 6zM183 641q0 -22 -13.5 -36.5t-34.5 -14.5q-22 0 -35.5 14.5t-13.5 36.5t13.5 36.5t35.5 14.5q21 0 34.5 -14.5t13.5 -36.5z" />
    <glyph glyph-name="uni0130" unicode="&#x130;" horiz-adv-x="302" 
d="M190 0h-78v683h78v-683zM199 814q0 -22 -13.5 -36.5t-34.5 -14.5q-22 0 -35.5 14.5t-13.5 36.5t13.5 36.5t35.5 14.5q21 0 34.5 -14.5t13.5 -36.5z" />
    <glyph glyph-name="dotlessi" unicode="&#x131;" horiz-adv-x="269" 
d="M172 0h-74v490h74v-490z" />
    <glyph glyph-name="IJ" unicode="&#x132;" horiz-adv-x="778" 
d="M682 235q0 -109 -63.5 -176t-166.5 -67q-112 0 -179 89l51 43q56 -90 128 -90q69 0 110.5 56t41.5 146v447h78v-448zM190 0h-78v683h78v-683z" />
    <glyph glyph-name="ij" unicode="&#x133;" horiz-adv-x="526" 
d="M429 -27q0 -73 -46 -123.5t-118 -50.5q-76 0 -123 38l44 46q11 -14 18 -21t24.5 -16.5t36.5 -9.5q90 0 90 131v523h74v-517zM440 641q0 -22 -13.5 -36.5t-34.5 -14.5q-22 0 -35.5 14.5t-13.5 36.5t13.5 36.5t35.5 14.5q21 0 34.5 -14.5t13.5 -36.5zM183 641
q0 -22 -13.5 -36.5t-34.5 -14.5q-22 0 -35.5 14.5t-13.5 36.5t13.5 36.5t35.5 14.5q21 0 34.5 -14.5t13.5 -36.5zM172 0h-74v490h74v-490z" />
    <glyph glyph-name="Jcircumflex" unicode="&#x134;" horiz-adv-x="506" 
d="M410 235q0 -109 -63.5 -176t-166.5 -67q-112 0 -179 89l51 43q56 -90 128 -90q69 0 110.5 56t41.5 146v447h78v-448zM497 739h-40l-86 98l-86 -98h-40l126 206z" />
    <glyph glyph-name="jcircumflex" unicode="&#x135;" horiz-adv-x="269" 
d="M172 -27q0 -73 -46 -123.5t-118 -50.5q-76 0 -123 38l44 46q11 -14 18 -21t24.5 -16.5t36.5 -9.5q90 0 90 131v523h74v-517zM261 566h-40l-86 98l-86 -98h-40l126 206z" />
    <glyph glyph-name="uni0136" unicode="&#x136;" horiz-adv-x="663" 
d="M390 -71l-117 -175h-41l93 206zM646 0h-116l-353 341l357 342h77l-349 -318zM177 0h-77v683h77v-683z" />
    <glyph glyph-name="uni0137" unicode="&#x137;" horiz-adv-x="533" 
d="M348 -71l-117 -175h-41l93 206zM528 0h-108l-260 252l249 238h71l-242 -216zM160 0h-74v683h74v-683z" />
    <glyph glyph-name="uni0138" unicode="&#x138;" horiz-adv-x="533" 
d="M528 0h-108l-260 252l249 238h71l-242 -216zM160 0h-74v490h74v-490z" />
    <glyph glyph-name="Lacute" unicode="&#x139;" horiz-adv-x="536" 
d="M502 0h-402v683h77v-640l325 6v-49zM271 906l-148 -167h-40l126 206z" />
    <glyph glyph-name="lacute" unicode="&#x13a;" horiz-adv-x="269" 
d="M172 0h-74v683h74v-683zM269 906l-148 -167h-40l126 206z" />
    <glyph glyph-name="uni013B" unicode="&#x13b;" horiz-adv-x="536" 
d="M367 -71l-117 -175h-41l93 206zM502 0h-402v683h77v-640l325 6v-49z" />
    <glyph glyph-name="uni013C" unicode="&#x13c;" horiz-adv-x="269" 
d="M216 -71l-117 -175h-41l93 206zM172 0h-74v683h74v-683z" />
    <glyph glyph-name="Lcaron" unicode="&#x13d;" horiz-adv-x="536" 
d="M443 753l-117 -175h-41l93 206zM502 0h-402v683h77v-640l325 6v-49z" />
    <glyph glyph-name="lcaron" unicode="&#x13e;" horiz-adv-x="289" 
d="M386 753l-117 -175h-41l93 206zM172 0h-74v683h74v-683z" />
    <glyph glyph-name="Ldot" unicode="&#x13f;" horiz-adv-x="536" 
d="M502 0h-402v683h77v-640l325 6v-49zM442 380q0 -22 -13.5 -36.5t-34.5 -14.5q-22 0 -35.5 14.5t-13.5 36.5t13.5 36.5t35.5 14.5q21 0 34.5 -14.5t13.5 -36.5z" />
    <glyph glyph-name="ldot" unicode="&#x140;" horiz-adv-x="279" 
d="M172 0h-74v683h74v-683zM322 360q0 -22 -13.5 -36.5t-34.5 -14.5q-22 0 -35.5 14.5t-13.5 36.5t13.5 36.5t35.5 14.5q21 0 34.5 -14.5t13.5 -36.5z" />
    <glyph glyph-name="Lslash" unicode="&#x141;" horiz-adv-x="536" 
d="M355 450l-178 -116v-291l325 6v-49h-402v284l-100 -65v57l100 65v342h77v-292l178 116v-57z" />
    <glyph glyph-name="lslash" unicode="&#x142;" horiz-adv-x="304" 
d="M189 0h-74v321l-106 -69v57l106 69v305h74v-257l112 73v-57l-112 -73v-369z" />
    <glyph glyph-name="Nacute" unicode="&#x143;" horiz-adv-x="727" 
d="M627 -23l-484 560l8 -537h-51v706l484 -561l-8 538h51v-706zM508 906l-148 -167h-40l126 206z" />
    <glyph glyph-name="nacute" unicode="&#x144;" horiz-adv-x="593" 
d="M436 0v291q0 84 -39 118t-97 34q-61 0 -100.5 -40t-39.5 -107v-296h-74v490h74v-81q21 35 64.5 62t102.5 27q35 0 65 -9t58 -30.5t44 -64t16 -101.5v-293h-74zM431 733l-148 -167h-40l126 206z" />
    <glyph glyph-name="uni0145" unicode="&#x145;" horiz-adv-x="727" 
d="M439 -71l-117 -175h-41l93 206zM627 -23l-484 560l8 -537h-51v706l484 -561l-8 538h51v-706z" />
    <glyph glyph-name="uni0146" unicode="&#x146;" horiz-adv-x="593" 
d="M369 -71l-117 -175h-41l93 206zM436 0v291q0 84 -39 118t-97 34q-61 0 -100.5 -40t-39.5 -107v-296h-74v490h74v-81q21 35 64.5 62t102.5 27q35 0 65 -9t58 -30.5t44 -64t16 -101.5v-293h-74z" />
    <glyph glyph-name="Ncaron" unicode="&#x147;" horiz-adv-x="727" 
d="M627 -23l-484 560l8 -537h-51v706l484 -561l-8 538h51v-706zM459 923h40l-126 -206l-126 206h40l86 -98z" />
    <glyph glyph-name="ncaron" unicode="&#x148;" horiz-adv-x="593" 
d="M436 0v291q0 84 -39 118t-97 34q-61 0 -100.5 -40t-39.5 -107v-296h-74v490h74v-81q21 35 64.5 62t102.5 27q35 0 65 -9t58 -30.5t44 -64t16 -101.5v-293h-74zM388 750h40l-126 -206l-126 206h40l86 -98z" />
    <glyph glyph-name="Eng" unicode="&#x14a;" horiz-adv-x="727" 
d="M627 -27q0 -73 -46 -123.5t-118 -50.5q-76 0 -123 38l44 46q11 -14 18.5 -21t27.5 -16.5t45 -9.5q40 0 70.5 35t30.5 96v69l-433 502l8 -538h-51v706l484 -560l-8 537h51v-710z" />
    <glyph glyph-name="eng" unicode="&#x14b;" horiz-adv-x="593" 
d="M510 293v-320q0 -73 -46 -123.5t-118 -50.5q-76 0 -123 38l44 46q11 -14 18 -21t24.5 -16.5t36.5 -9.5q90 0 90 131v324q0 84 -39 118t-97 34q-61 0 -100.5 -40t-39.5 -107v-296h-74v490h74v-81q21 35 64.5 62t102.5 27q35 0 65 -9t58 -30.5t44 -64t16 -101.5z" />
    <glyph glyph-name="Omacron" unicode="&#x14c;" horiz-adv-x="804" 
d="M752 341q0 -145 -102.5 -247t-247.5 -102t-247.5 102t-102.5 247t102 247.5t248 102.5t248 -102.5t102 -247.5zM669 341q0 129 -77.5 218.5t-189.5 89.5t-189.5 -89.5t-77.5 -218.5t77.5 -218t189.5 -89t189.5 89t77.5 218zM532 782h-260v54h260v-54z" />
    <glyph glyph-name="omacron" unicode="&#x14d;" horiz-adv-x="584" 
d="M536 245q0 -105 -71.5 -179t-172.5 -74t-172.5 74t-71.5 179q0 104 71.5 178.5t172.5 74.5t172.5 -74.5t71.5 -178.5zM458 246q0 90 -48 153t-118 63t-118 -63t-48 -153q0 -91 48 -154t118 -63t118 63t48 154zM422 609h-260v54h260v-54z" />
    <glyph glyph-name="Ohungarumlaut" unicode="&#x150;" horiz-adv-x="804" 
d="M752 341q0 -145 -102.5 -247t-247.5 -102t-247.5 102t-102.5 247t102 247.5t248 102.5t248 -102.5t102 -247.5zM669 341q0 129 -77.5 218.5t-189.5 89.5t-189.5 -89.5t-77.5 -218.5t77.5 -218t189.5 -89t189.5 89t77.5 218zM474 924l-131 -185h-40l106 220zM630 906
l-148 -167h-40l126 206z" />
    <glyph glyph-name="ohungarumlaut" unicode="&#x151;" horiz-adv-x="584" 
d="M536 245q0 -105 -71.5 -179t-172.5 -74t-172.5 74t-71.5 179q0 104 71.5 178.5t172.5 74.5t172.5 -74.5t71.5 -178.5zM458 246q0 90 -48 153t-118 63t-118 -63t-48 -153q0 -91 48 -154t118 -63t118 63t48 154zM364 751l-131 -185h-40l106 220zM520 733l-148 -167h-40
l126 206z" />
    <glyph glyph-name="OE" unicode="&#x152;" horiz-adv-x="942" 
d="M625 683h239v-49l-310 6v-273l297 2v-47l-297 2v-281l310 6v-49h-239q-35 0 -106.5 -4t-112.5 -4q-150 0 -252 101.5t-102 247.5t102 248t252 102q41 0 112.5 -4t106.5 -4zM477 43v597q-40 6 -63 6q-120 0 -199.5 -86.5t-79.5 -218.5q0 -131 79.5 -217.5t199.5 -86.5
q23 0 63 6z" />
    <glyph glyph-name="oe" unicode="&#x153;" horiz-adv-x="967" 
d="M693 498q103 0 164.5 -68.5t61.5 -175.5h-388q-1 -105 54 -162t127 -57q39 0 75 15t48.5 25t32.5 28l25 -27q-77 -84 -187 -84q-67 0 -122.5 31t-88.5 83q-32 -52 -85.5 -83t-117.5 -31q-101 0 -172.5 74t-71.5 179q0 104 71.5 178.5t172.5 74.5q63 0 116 -31t85 -81
q32 51 85 81.5t115 30.5zM458 246q0 90 -48 153t-118 63t-118 -63t-48 -153q0 -91 48 -154t118 -63t118 63t48 154zM532 292h309q-6 77 -46.5 123.5t-101.5 46.5q-55 0 -105.5 -46t-55.5 -124z" />
    <glyph glyph-name="Racute" unicode="&#x154;" horiz-adv-x="624" 
d="M611 0h-103l-296 324h103q70 0 118 40.5t48 117.5t-48 117.5t-118 40.5h-138v-640h-77v683h222q104 0 172.5 -58t68.5 -143q0 -80 -64.5 -134.5t-158.5 -54.5zM441 906l-148 -167h-40l126 206z" />
    <glyph glyph-name="racute" unicode="&#x155;" horiz-adv-x="344" 
d="M326 441q-78 9 -122 -33t-44 -112v-296h-74v490h74v-81q22 38 67.5 63.5t98.5 25.5v-57zM344 733l-148 -167h-40l126 206z" />
    <glyph glyph-name="uni0156" unicode="&#x156;" horiz-adv-x="624" 
d="M378 -71l-117 -175h-41l93 206zM611 0h-103l-296 324h103q70 0 118 40.5t48 117.5t-48 117.5t-118 40.5h-138v-640h-77v683h222q104 0 172.5 -58t68.5 -143q0 -80 -64.5 -134.5t-158.5 -54.5z" />
    <glyph glyph-name="uni0157" unicode="&#x157;" horiz-adv-x="344" 
d="M203 -71l-117 -175h-41l93 206zM326 441q-78 9 -122 -33t-44 -112v-296h-74v490h74v-81q22 38 67.5 63.5t98.5 25.5v-57z" />
    <glyph glyph-name="Rcaron" unicode="&#x158;" horiz-adv-x="624" 
d="M611 0h-103l-296 324h103q70 0 118 40.5t48 117.5t-48 117.5t-118 40.5h-138v-640h-77v683h222q104 0 172.5 -58t68.5 -143q0 -80 -64.5 -134.5t-158.5 -54.5zM405 923h40l-126 -206l-126 206h40l86 -98z" />
    <glyph glyph-name="rcaron" unicode="&#x159;" horiz-adv-x="344" 
d="M326 441q-78 9 -122 -33t-44 -112v-296h-74v490h74v-81q22 38 67.5 63.5t98.5 25.5v-57zM304 750h40l-126 -206l-126 206h40l86 -98z" />
    <glyph glyph-name="Sacute" unicode="&#x15a;" 
d="M514 197q0 -89 -67.5 -147t-167.5 -58q-95 0 -158.5 51.5t-74.5 124.5l65 18q3 -60 54.5 -105.5t116.5 -45.5q67 0 113 41.5t46 103.5q0 56 -40.5 88.5t-133.5 54.5q-107 25 -151.5 67.5t-44.5 110.5q0 82 63 136.5t155 54.5q87 0 145 -44.5t71 -105.5l-65 -17
q-8 49 -54.5 86t-99.5 37q-58 0 -100 -36.5t-42 -89.5q0 -48 37 -75t125 -49q113 -28 160.5 -75.5t47.5 -125.5zM420 906l-148 -167h-40l126 206z" />
    <glyph glyph-name="sacute" unicode="&#x15b;" horiz-adv-x="494" 
d="M431 141q0 -64 -56 -106.5t-138 -42.5q-78 0 -130 38t-62 93l59 15q7 -48 45.5 -78.5t90.5 -30.5t89 28.5t37 69.5q0 37 -33 58t-106 37q-86 19 -124 52.5t-38 83.5q0 60 52 100t128 40q72 0 120 -33.5t59 -79.5l-58 -13q-12 38 -47 63.5t-76 25.5q-46 0 -79 -25t-33 -59
q0 -33 29.5 -51.5t100.5 -33.5q92 -21 131 -57t39 -94zM376 733l-148 -167h-40l126 206z" />
    <glyph glyph-name="Scircumflex" unicode="&#x15c;" 
d="M514 197q0 -89 -67.5 -147t-167.5 -58q-95 0 -158.5 51.5t-74.5 124.5l65 18q3 -60 54.5 -105.5t116.5 -45.5q67 0 113 41.5t46 103.5q0 56 -40.5 88.5t-133.5 54.5q-107 25 -151.5 67.5t-44.5 110.5q0 82 63 136.5t155 54.5q87 0 145 -44.5t71 -105.5l-65 -17
q-8 49 -54.5 86t-99.5 37q-58 0 -100 -36.5t-42 -89.5q0 -48 37 -75t125 -49q113 -28 160.5 -75.5t47.5 -125.5zM417 739h-40l-86 98l-86 -98h-40l126 206z" />
    <glyph glyph-name="scircumflex" unicode="&#x15d;" horiz-adv-x="494" 
d="M431 141q0 -64 -56 -106.5t-138 -42.5q-78 0 -130 38t-62 93l59 15q7 -48 45.5 -78.5t90.5 -30.5t89 28.5t37 69.5q0 37 -33 58t-106 37q-86 19 -124 52.5t-38 83.5q0 60 52 100t128 40q72 0 120 -33.5t59 -79.5l-58 -13q-12 38 -47 63.5t-76 25.5q-46 0 -79 -25t-33 -59
q0 -33 29.5 -51.5t100.5 -33.5q92 -21 131 -57t39 -94zM372 566h-40l-86 98l-86 -98h-40l126 206z" />
    <glyph glyph-name="Scedilla" unicode="&#x15e;" 
d="M390 -138q0 -37 -34.5 -62.5t-111.5 -25.5l-62 6l11 42q29 -12 58 -12t49.5 13t20.5 37q0 23 -29 35.5t-70 3.5l40 94q-89 4 -147.5 54.5t-68.5 120.5l65 18q3 -60 54.5 -105.5t116.5 -45.5q67 0 113 41.5t46 103.5q0 56 -40.5 88.5t-133.5 54.5q-107 25 -151.5 67.5
t-44.5 110.5q0 82 63 136.5t155 54.5q87 0 145 -44.5t71 -105.5l-65 -17q-8 49 -54.5 86t-99.5 37q-58 0 -100 -36.5t-42 -89.5q0 -48 37 -75t125 -49q113 -28 160.5 -75.5t47.5 -125.5q0 -85 -62.5 -142t-157.5 -62l-21 -51q45 0 81 -19.5t36 -60.5z" />
    <glyph glyph-name="scedilla" unicode="&#x15f;" horiz-adv-x="494" 
d="M350 -138q0 -37 -34.5 -62.5t-111.5 -25.5l-62 6l11 42q29 -12 58 -12t49.5 13t20.5 37q0 23 -29 35.5t-70 3.5l40 94q-72 4 -120 41t-57 89l59 15q7 -48 45.5 -78.5t90.5 -30.5t89 28.5t37 69.5q0 37 -33 58t-106 37q-86 19 -124 52.5t-38 83.5q0 60 52 100t128 40
q72 0 120 -33.5t59 -79.5l-58 -13q-12 38 -47 63.5t-76 25.5q-46 0 -79 -25t-33 -59q0 -33 29.5 -51.5t100.5 -33.5q92 -21 131 -57t39 -94q0 -61 -50 -102t-127 -46l-21 -51q45 0 81 -19.5t36 -60.5z" />
    <glyph glyph-name="Scaron" unicode="&#x160;" 
d="M514 197q0 -89 -67.5 -147t-167.5 -58q-95 0 -158.5 51.5t-74.5 124.5l65 18q3 -60 54.5 -105.5t116.5 -45.5q67 0 113 41.5t46 103.5q0 56 -40.5 88.5t-133.5 54.5q-107 25 -151.5 67.5t-44.5 110.5q0 82 63 136.5t155 54.5q87 0 145 -44.5t71 -105.5l-65 -17
q-8 49 -54.5 86t-99.5 37q-58 0 -100 -36.5t-42 -89.5q0 -48 37 -75t125 -49q113 -28 160.5 -75.5t47.5 -125.5zM377 923h40l-126 -206l-126 206h40l86 -98z" />
    <glyph glyph-name="scaron" unicode="&#x161;" horiz-adv-x="494" 
d="M431 141q0 -64 -56 -106.5t-138 -42.5q-78 0 -130 38t-62 93l59 15q7 -48 45.5 -78.5t90.5 -30.5t89 28.5t37 69.5q0 37 -33 58t-106 37q-86 19 -124 52.5t-38 83.5q0 60 52 100t128 40q72 0 120 -33.5t59 -79.5l-58 -13q-12 38 -47 63.5t-76 25.5q-46 0 -79 -25t-33 -59
q0 -33 29.5 -51.5t100.5 -33.5q92 -21 131 -57t39 -94zM332 750h40l-126 -206l-126 206h40l86 -98z" />
    <glyph glyph-name="Tcommaaccent" unicode="&#x162;" horiz-adv-x="521" 
d="M325 -71l-117 -175h-41l93 206zM497 636l-198 4v-640h-77v640l-198 -4v47h473v-47z" />
    <glyph glyph-name="Tcommaaccent" unicode="&#x21a;" horiz-adv-x="521" 
d="M325 -71l-117 -175h-41l93 206zM497 636l-198 4v-640h-77v640l-198 -4v47h473v-47z" />
    <glyph glyph-name="tcommaaccent" unicode="&#x163;" horiz-adv-x="334" 
d="M230 -71l-117 -175h-41l93 206zM177 446v-315q0 -85 29 -131h-83q-21 53 -21 131v315l-102 -1v45l102 -1v161h75v-161l142 1v-45z" />
    <glyph glyph-name="tcommaaccent" unicode="&#x21b;" horiz-adv-x="334" 
d="M230 -71l-117 -175h-41l93 206zM177 446v-315q0 -85 29 -131h-83q-21 53 -21 131v315l-102 -1v45l102 -1v161h75v-161l142 1v-45z" />
    <glyph glyph-name="Tcaron" unicode="&#x164;" horiz-adv-x="521" 
d="M497 636l-198 4v-640h-77v640l-198 -4v47h473v-47zM346 923h40l-126 -206l-126 206h40l86 -98z" />
    <glyph glyph-name="tcaron" unicode="&#x165;" horiz-adv-x="334" 
d="M403 753l-117 -175h-41l93 206zM177 446v-315q0 -85 29 -131h-83q-21 53 -21 131v315l-102 -1v45l102 -1v161h75v-161l142 1v-45z" />
    <glyph glyph-name="Tbar" unicode="&#x166;" horiz-adv-x="521" 
d="M431 335h-132v-335h-77v335h-132v49h132v256l-198 -4v47h473v-47l-198 4v-256h132v-49z" />
    <glyph glyph-name="tbar" unicode="&#x167;" horiz-adv-x="334" 
d="M102 267h-81v45h81v134l-102 -1v45l102 -1v161h75v-161l142 1v-45l-142 1v-134h108v-45h-108v-136q0 -85 29 -131h-83q-21 53 -21 131v136z" />
    <glyph glyph-name="Utilde" unicode="&#x168;" horiz-adv-x="730" 
d="M634 275q0 -128 -78 -205.5t-191 -77.5t-191 77.5t-78 205.5v408h80v-405q0 -111 52.5 -177t136.5 -66t136.5 66t52.5 177v405h80v-408zM298 797q-24 0 -37.5 -14t-16.5 -28l-30 9q11 37 37.5 64.5t68.5 27.5q24 0 65.5 -18.5t68.5 -18.5q24 0 37.5 14t16.5 28l30 -9
q-11 -37 -37.5 -64.5t-68.5 -27.5q-25 0 -66.5 18.5t-67.5 18.5z" />
    <glyph glyph-name="utilde" unicode="&#x169;" horiz-adv-x="593" 
d="M157 490v-291q0 -84 39.5 -118t97.5 -34q61 0 100 39.5t39 107.5v296h74v-490h-74v81q-21 -35 -64.5 -62t-102.5 -27q-35 0 -65 9t-58 30.5t-44 64t-16 101.5v293h74zM230 624q-24 0 -37.5 -14t-16.5 -28l-30 9q11 37 37.5 64.5t68.5 27.5q24 0 65.5 -18.5t68.5 -18.5
q24 0 37.5 14t16.5 28l30 -9q-11 -37 -37.5 -64.5t-68.5 -27.5q-25 0 -66.5 18.5t-67.5 18.5z" />
    <glyph glyph-name="Umacron" unicode="&#x16a;" horiz-adv-x="730" 
d="M634 275q0 -128 -78 -205.5t-191 -77.5t-191 77.5t-78 205.5v408h80v-405q0 -111 52.5 -177t136.5 -66t136.5 66t52.5 177v405h80v-408zM495 782h-260v54h260v-54z" />
    <glyph glyph-name="umacron" unicode="&#x16b;" horiz-adv-x="593" 
d="M157 490v-291q0 -84 39.5 -118t97.5 -34q61 0 100 39.5t39 107.5v296h74v-490h-74v81q-21 -35 -64.5 -62t-102.5 -27q-35 0 -65 9t-58 30.5t-44 64t-16 101.5v293h74zM427 609h-260v54h260v-54z" />
    <glyph glyph-name="Ubreve" unicode="&#x16c;" horiz-adv-x="730" 
d="M634 275q0 -128 -78 -205.5t-191 -77.5t-191 77.5t-78 205.5v408h80v-405q0 -111 52.5 -177t136.5 -66t136.5 66t52.5 177v405h80v-408zM365 757q-54 0 -94 40.5t-40 98.5h36q5 -35 31.5 -56.5t66.5 -21.5t66.5 21.5t31.5 56.5h36q0 -58 -40 -98.5t-94 -40.5z" />
    <glyph glyph-name="ubreve" unicode="&#x16d;" horiz-adv-x="593" 
d="M157 490v-291q0 -84 39.5 -118t97.5 -34q61 0 100 39.5t39 107.5v296h74v-490h-74v81q-21 -35 -64.5 -62t-102.5 -27q-35 0 -65 9t-58 30.5t-44 64t-16 101.5v293h74zM297 584q-54 0 -94 40.5t-40 98.5h36q5 -35 31.5 -56.5t66.5 -21.5t66.5 21.5t31.5 56.5h36
q0 -58 -40 -98.5t-94 -40.5z" />
    <glyph glyph-name="Uring" unicode="&#x16e;" horiz-adv-x="730" 
d="M634 275q0 -128 -78 -205.5t-191 -77.5t-191 77.5t-78 205.5v408h80v-405q0 -111 52.5 -177t136.5 -66t136.5 66t52.5 177v405h80v-408zM483 855q0 -48 -35 -82t-83 -34q-49 0 -83.5 34t-34.5 82t34.5 82t83.5 34q48 0 83 -34t35 -82zM431 856q0 35 -19 59t-47 24
t-47 -24t-19 -59t19 -59.5t47 -24.5t47 24.5t19 59.5z" />
    <glyph glyph-name="uring" unicode="&#x16f;" horiz-adv-x="593" 
d="M157 490v-291q0 -84 39.5 -118t97.5 -34q61 0 100 39.5t39 107.5v296h74v-490h-74v81q-21 -35 -64.5 -62t-102.5 -27q-35 0 -65 9t-58 30.5t-44 64t-16 101.5v293h74zM415 682q0 -48 -35 -82t-83 -34q-49 0 -83.5 34t-34.5 82t34.5 82t83.5 34q48 0 83 -34t35 -82z
M363 683q0 35 -19 59t-47 24t-47 -24t-19 -59t19 -59.5t47 -24.5t47 24.5t19 59.5z" />
    <glyph glyph-name="Uhungarumlaut" unicode="&#x170;" horiz-adv-x="730" 
d="M634 275q0 -128 -78 -205.5t-191 -77.5t-191 77.5t-78 205.5v408h80v-405q0 -111 52.5 -177t136.5 -66t136.5 66t52.5 177v405h80v-408zM436 924l-131 -185h-40l106 220zM592 906l-148 -167h-40l126 206z" />
    <glyph glyph-name="uhungarumlaut" unicode="&#x171;" horiz-adv-x="593" 
d="M157 490v-291q0 -84 39.5 -118t97.5 -34q61 0 100 39.5t39 107.5v296h74v-490h-74v81q-21 -35 -64.5 -62t-102.5 -27q-35 0 -65 9t-58 30.5t-44 64t-16 101.5v293h74zM369 751l-131 -185h-40l106 220zM525 733l-148 -167h-40l126 206z" />
    <glyph glyph-name="Uogonek" unicode="&#x172;" horiz-adv-x="730" 
d="M454 -209q-32 -15 -76 -15q-46 0 -78 24.5t-32 65.5q0 72 97 126q-113 0 -191 77.5t-78 205.5v408h80v-405q0 -111 52.5 -177t136.5 -66t136.5 66t52.5 177v405h80v-408q0 -110 -58 -183.5t-150 -92.5q-85 -69 -85 -122q0 -29 18 -45t47 -16q21 0 39 6z" />
    <glyph glyph-name="uogonek" unicode="&#x173;" horiz-adv-x="593" 
d="M498 -178l9 -31q-32 -15 -76 -15q-46 0 -78 24.5t-32 65.5q0 40 32 75t80 59v81q-21 -35 -64.5 -62t-102.5 -27q-35 0 -65 9t-58 30.5t-44 64t-16 101.5v293h74v-291q0 -84 39.5 -118t97.5 -34q61 0 100 39.5t39 107.5v296h74v-490h-26q-87 -70 -87 -123q0 -29 18 -45
t47 -16q21 0 39 6z" />
    <glyph glyph-name="Wcircumflex" unicode="&#x174;" horiz-adv-x="923" 
d="M23 683h86l167 -531l198 554l205 -552l164 529h57l-233 -706l-205 549l-206 -549zM600 739h-40l-86 98l-86 -98h-40l126 206z" />
    <glyph glyph-name="wcircumflex" unicode="&#x175;" horiz-adv-x="782" 
d="M26 490h78l145 -372l158 395l164 -395l129 372h56l-201 -517l-164 385l-164 -385zM533 566h-40l-86 98l-86 -98h-40l126 206z" />
    <glyph glyph-name="Ycircumflex" unicode="&#x176;" horiz-adv-x="570" 
d="M582 683l-256 -379v-304h-82v304l-256 379h98l219 -331l208 331h69zM431 739h-40l-86 98l-86 -98h-40l126 206z" />
    <glyph glyph-name="ycircumflex" unicode="&#x177;" horiz-adv-x="517" 
d="M509 490l-354 -724l-67 37q10 9 26 27t54.5 74.5t65.5 115.5l-229 470h86l183 -391l179 391h56zM400 566h-40l-86 98l-86 -98h-40l126 206z" />
    <glyph glyph-name="Ydieresis" unicode="&#x178;" horiz-adv-x="570" 
d="M582 683l-256 -379v-304h-82v304l-256 379h98l219 -331l208 331h69zM256 784q0 -22 -13.5 -36.5t-34.5 -14.5q-22 0 -35.5 14.5t-13.5 36.5t13.5 36.5t35.5 14.5q21 0 34.5 -14.5t13.5 -36.5zM431 784q0 -22 -13.5 -36.5t-34.5 -14.5q-22 0 -35.5 14.5t-13.5 36.5
t13.5 36.5t35.5 14.5q21 0 34.5 -14.5t13.5 -36.5z" />
    <glyph glyph-name="Zacute" unicode="&#x179;" horiz-adv-x="578" 
d="M545 0h-529l412 640l-380 -6v49h497l-412 -640l412 6v-49zM425 906l-148 -167h-40l126 206z" />
    <glyph glyph-name="zacute" unicode="&#x17a;" horiz-adv-x="454" 
d="M412 0h-396l289 449l-265 -6v47h372l-290 -449l290 6v-47zM354 733l-148 -167h-40l126 206z" />
    <glyph glyph-name="Zdotaccent" unicode="&#x17b;" horiz-adv-x="578" 
d="M545 0h-529l412 640l-380 -6v49h497l-412 -640l412 6v-49zM345 814q0 -22 -13.5 -36.5t-34.5 -14.5q-22 0 -35.5 14.5t-13.5 36.5t13.5 36.5t35.5 14.5q21 0 34.5 -14.5t13.5 -36.5z" />
    <glyph glyph-name="zdotaccent" unicode="&#x17c;" horiz-adv-x="454" 
d="M412 0h-396l289 449l-265 -6v47h372l-290 -449l290 6v-47zM274 641q0 -22 -13.5 -36.5t-34.5 -14.5q-22 0 -35.5 14.5t-13.5 36.5t13.5 36.5t35.5 14.5q21 0 34.5 -14.5t13.5 -36.5z" />
    <glyph glyph-name="Zcaron" unicode="&#x17d;" horiz-adv-x="578" 
d="M545 0h-529l412 640l-380 -6v49h497l-412 -640l412 6v-49zM382 923h40l-126 -206l-126 206h40l86 -98z" />
    <glyph glyph-name="zcaron" unicode="&#x17e;" horiz-adv-x="454" 
d="M412 0h-396l289 449l-265 -6v47h372l-290 -449l290 6v-47zM311 750h40l-126 -206l-126 206h40l86 -98z" />
    <glyph glyph-name="florin" unicode="&#x192;" horiz-adv-x="552" 
d="M289 371l-67 -370q-40 -202 -188 -202q-38 0 -74 15t-56 39l48 40q29 -58 82 -58q78 0 110 166l67 370l-101 -1l9 45l100 -1l14 75q40 202 188 202q38 0 74 -15t56 -39l-48 -40q-29 58 -82 58q-78 0 -110 -166l-14 -75l143 1l-9 -45z" />
    <glyph glyph-name="Aringacute" unicode="&#x1fa;" horiz-adv-x="656" 
d="M446 803q0 -45 -32 -78.5t-78 -37.5l320 -687h-85l-111 242h-294l-107 -242h-59l319 687q-46 4 -77.5 37t-31.5 79q0 48 34.5 82t83.5 34q48 0 83 -34t35 -82zM441 285l-130 284l-126 -284h256zM394 804q0 35 -19 59t-47 24t-47 -24t-19 -59t19 -59.5t47 -24.5t47 24.5
t19 59.5zM468 1109l-148 -167h-40l126 206z" />
    <glyph glyph-name="aringacute" unicode="&#x1fb;" horiz-adv-x="535" 
d="M473 0h-78q-16 27 -16 80q-29 -36 -77 -62t-101 -26q-70 0 -114 36t-44 96q0 34 13.5 61.5t48 55.5t102 51t167.5 39q0 65 -36 97.5t-80 32.5q-85 0 -142 -88l-51 50q91 75 193 75q82 0 138 -47t53 -155l-5 -165q-2 -68 29 -131zM372 194l2 102q-78 -13 -130.5 -32
t-78 -42t-35 -44t-9.5 -47q0 -43 27.5 -67.5t77.5 -24.5q58 0 102 41t44 114zM383 662q0 -48 -35 -82t-83 -34q-49 0 -83.5 34t-34.5 82t34.5 82t83.5 34q48 0 83 -34t35 -82zM331 663q0 35 -19 59t-47 24t-47 -24t-19 -59t19 -59.5t47 -24.5t47 24.5t19 59.5zM399 968
l-148 -167h-40l126 206z" />
    <glyph glyph-name="AEacute" unicode="&#x1fc;" horiz-adv-x="884" 
d="M419 0v279h-220l-170 -279h-59l425 683h411v-49l-310 6v-273l297 2v-47l-297 2v-281l310 6v-49h-387zM419 323v317l-193 -317h193zM627 906l-148 -167h-40l126 206z" />
    <glyph glyph-name="aeacute" unicode="&#x1fd;" horiz-adv-x="883" 
d="M407 111q-90 -119 -206 -119q-70 0 -114 36t-44 96q0 34 13.5 61.5t47 53t102 39.5t168.5 14q8 87 -28 128t-88 41q-85 0 -142 -88l-51 50q91 75 193 75q123 0 168 -88q72 88 183 88q103 0 164.5 -68.5t61.5 -175.5h-388q-1 -105 54 -162t127 -57q39 0 75 15t48.5 25
t32.5 28l25 -27q-77 -84 -187 -84q-139 0 -215 119zM448 292h309q-6 77 -46.5 123.5t-101.5 46.5q-55 0 -105.5 -46t-55.5 -124zM372 194l2 60q-78 0 -131 -10t-78 -29t-34.5 -38.5t-9.5 -45.5q0 -43 27.5 -67.5t77.5 -24.5q58 0 102 41t44 114zM576 733l-148 -167h-40
l126 206z" />
    <glyph glyph-name="Scommaaccent" unicode="&#x218;" 
d="M357 -71l-117 -175h-41l93 206zM514 197q0 -89 -67.5 -147t-167.5 -58q-95 0 -158.5 51.5t-74.5 124.5l65 18q3 -60 54.5 -105.5t116.5 -45.5q67 0 113 41.5t46 103.5q0 56 -40.5 88.5t-133.5 54.5q-107 25 -151.5 67.5t-44.5 110.5q0 82 63 136.5t155 54.5
q87 0 145 -44.5t71 -105.5l-65 -17q-8 49 -54.5 86t-99.5 37q-58 0 -100 -36.5t-42 -89.5q0 -48 37 -75t125 -49q113 -28 160.5 -75.5t47.5 -125.5z" />
    <glyph glyph-name="scommaaccent" unicode="&#x219;" horiz-adv-x="494" 
d="M310 -71l-117 -175h-41l93 206zM431 141q0 -64 -56 -106.5t-138 -42.5q-78 0 -130 38t-62 93l59 15q7 -48 45.5 -78.5t90.5 -30.5t89 28.5t37 69.5q0 37 -33 58t-106 37q-86 19 -124 52.5t-38 83.5q0 60 52 100t128 40q72 0 120 -33.5t59 -79.5l-58 -13q-12 38 -47 63.5
t-76 25.5q-46 0 -79 -25t-33 -59q0 -33 29.5 -51.5t100.5 -33.5q92 -21 131 -57t39 -94z" />
    <glyph glyph-name="circumflex" unicode="&#x2c6;" horiz-adv-x="272" 
d="M262 566h-40l-86 98l-86 -98h-40l126 206z" />
    <glyph glyph-name="caron" unicode="&#x2c7;" horiz-adv-x="272" 
d="M222 750h40l-126 -206l-126 206h40l86 -98z" />
    <glyph glyph-name="breve" unicode="&#x2d8;" horiz-adv-x="272" 
d="M136 584q-54 0 -94 40.5t-40 98.5h36q5 -35 31.5 -56.5t66.5 -21.5t66.5 21.5t31.5 56.5h36q0 -58 -40 -98.5t-94 -40.5z" />
    <glyph glyph-name="dotaccent" unicode="&#x2d9;" horiz-adv-x="272" 
d="M185 641q0 -22 -13.5 -36.5t-34.5 -14.5q-22 0 -35.5 14.5t-13.5 36.5t13.5 36.5t35.5 14.5q21 0 34.5 -14.5t13.5 -36.5z" />
    <glyph glyph-name="ring" unicode="&#x2da;" horiz-adv-x="272" 
d="M254 682q0 -48 -35 -82t-83 -34q-49 0 -83.5 34t-34.5 82t34.5 82t83.5 34q48 0 83 -34t35 -82zM202 683q0 35 -19 59t-47 24t-47 -24t-19 -59t19 -59.5t47 -24.5t47 24.5t19 59.5z" />
    <glyph glyph-name="ogonek" unicode="&#x2db;" horiz-adv-x="272" 
d="M216 -209q-32 -15 -76 -15q-46 0 -78 24.5t-32 65.5q0 40 32 75t80 59h48q-87 -70 -87 -123q0 -29 18 -45t47 -16q21 0 39 6z" />
    <glyph glyph-name="tilde" unicode="&#x2dc;" horiz-adv-x="272" 
d="M59 624q-24 0 -37.5 -14t-16.5 -28l-30 9q11 37 37.5 64.5t68.5 27.5q24 0 65.5 -18.5t68.5 -18.5q24 0 37.5 14t16.5 28l30 -9q-11 -37 -37.5 -64.5t-68.5 -27.5q-25 0 -66.5 18.5t-67.5 18.5z" />
    <glyph glyph-name="hungarumlaut" unicode="&#x2dd;" horiz-adv-x="272" 
d="M208 751l-131 -185h-40l106 220zM364 733l-148 -167h-40l126 206z" />
    <glyph glyph-name="Delta" unicode="&#x394;" horiz-adv-x="586" 
d="M293 666l289 -666h-578zM483 63l-190 439l-190 -439h380z" />
    <glyph glyph-name="Delta" unicode="&#x2206;" horiz-adv-x="586" 
d="M293 666l289 -666h-578zM483 63l-190 439l-190 -439h380z" />
    <glyph glyph-name="Omega" unicode="&#x3a9;" horiz-adv-x="738" 
d="M369 691q135 0 226 -93t91 -234q0 -217 -206 -308h214v-56h-275v65q186 100 186 299q0 120 -68 202.5t-168 82.5t-168 -82.5t-68 -202.5q0 -199 186 -299v-65h-275v56h214q-206 91 -206 308q0 141 91 234t226 93z" />
    <glyph glyph-name="Omega" unicode="&#x2126;" horiz-adv-x="738" 
d="M369 691q135 0 226 -93t91 -234q0 -217 -206 -308h214v-56h-275v65q186 100 186 299q0 120 -68 202.5t-168 82.5t-168 -82.5t-68 -202.5q0 -199 186 -299v-65h-275v56h214q-206 91 -206 308q0 141 91 234t226 93z" />
    <glyph glyph-name="pi" unicode="&#x3c0;" 
d="M546 454h-67v-454h-74v454h-228v-454h-74v454h-67v56h510v-56z" />
    <glyph glyph-name="Bdotaccent" unicode="&#x1e02;" horiz-adv-x="647" 
d="M585 188q0 -33 -10.5 -63.5t-33.5 -59.5t-68 -47t-105 -18h-268v683h240q109 0 162.5 -53t53.5 -123q0 -41 -24.5 -82t-65.5 -65q55 -21 87 -67t32 -105zM506 188q0 26 -6.5 49t-22 45.5t-45.5 35.5t-72 13h-183v-288h183q42 0 72.5 15t45.5 38.5t21.5 46.5t6.5 45z
M477 506q0 58 -37.5 96t-109.5 38h-153v-266h153q72 0 109.5 37t37.5 95zM367 814q0 -22 -13.5 -36.5t-34.5 -14.5q-22 0 -35.5 14.5t-13.5 36.5t13.5 36.5t35.5 14.5q21 0 34.5 -14.5t13.5 -36.5z" />
    <glyph glyph-name="bdotaccent" unicode="&#x1e03;" horiz-adv-x="609" 
d="M158 0h-72v683h72v-273q23 38 70 63t101 25q97 0 164.5 -74.5t67.5 -178.5t-67.5 -178.5t-164.5 -74.5q-54 0 -101 25t-70 63v-80zM158 245q0 -97 45 -157t119 -60q69 0 115 63t46 154t-46 153.5t-115 62.5q-74 0 -119 -58.5t-45 -157.5zM376 641q0 -22 -13.5 -36.5
t-34.5 -14.5q-22 0 -35.5 14.5t-13.5 36.5t13.5 36.5t35.5 14.5q21 0 34.5 -14.5t13.5 -36.5z" />
    <glyph glyph-name="Ddotaccent" unicode="&#x1e0a;" horiz-adv-x="716" 
d="M664 341q0 -145 -99.5 -243t-245.5 -98h-219v683h219q146 0 245.5 -98t99.5 -244zM581 341q0 134 -79 216.5t-195 82.5h-130v-597h130q116 0 195 82.5t79 215.5zM393 814q0 -22 -13.5 -36.5t-34.5 -14.5q-22 0 -35.5 14.5t-13.5 36.5t13.5 36.5t35.5 14.5
q21 0 34.5 -14.5t13.5 -36.5z" />
    <glyph glyph-name="ddotaccent" unicode="&#x1e0b;" horiz-adv-x="609" 
d="M523 0h-72v80q-23 -38 -70 -63t-101 -25q-97 0 -164.5 74.5t-67.5 178.5t67.5 178.5t164.5 74.5q54 0 101 -25t70 -63v273h72v-683zM451 245q0 98 -45 157t-119 59q-69 0 -115 -62.5t-46 -153.5t46 -154t115 -63q74 0 119 60t45 157zM330 641q0 -22 -13.5 -36.5
t-34.5 -14.5q-22 0 -35.5 14.5t-13.5 36.5t13.5 36.5t35.5 14.5q21 0 34.5 -14.5t13.5 -36.5z" />
    <glyph glyph-name="Fdotaccent" unicode="&#x1e1e;" horiz-adv-x="564" 
d="M502 634l-322 6v-273l309 2v-47l-309 2v-324h-80v683h402v-49zM355 814q0 -22 -13.5 -36.5t-34.5 -14.5q-22 0 -35.5 14.5t-13.5 36.5t13.5 36.5t35.5 14.5q21 0 34.5 -14.5t13.5 -36.5z" />
    <glyph glyph-name="fdotaccent" unicode="&#x1e1f;" horiz-adv-x="344" 
d="M398 633l-41 -36q-41 58 -89 58q-37 0 -64 -38t-27 -128l142 1v-45l-142 1v-446h-75v446l-102 -1v45l102 -1q0 96 46.5 149t119.5 53q77 0 130 -58zM313 814q0 -22 -13.5 -36.5t-34.5 -14.5q-22 0 -35.5 14.5t-13.5 36.5t13.5 36.5t35.5 14.5q21 0 34.5 -14.5t13.5 -36.5
z" />
    <glyph glyph-name="Hdotaccent" unicode="&#x1e22;" horiz-adv-x="712" 
d="M612 0h-77v330h-358v-330h-77v683h77v-310h358v310h77v-683zM405 814q0 -22 -13.5 -36.5t-34.5 -14.5q-22 0 -35.5 14.5t-13.5 36.5t13.5 36.5t35.5 14.5q21 0 34.5 -14.5t13.5 -36.5z" />
    <glyph glyph-name="hdotaccent" unicode="&#x1e23;" horiz-adv-x="593" 
d="M436 0v291q0 84 -39 118t-97 34q-61 0 -100.5 -40t-39.5 -107v-296h-74v683h74v-274q21 35 64.5 62t102.5 27q35 0 65 -9t58 -30.5t44 -64t16 -101.5v-293h-74zM376 641q0 -22 -13.5 -36.5t-34.5 -14.5q-22 0 -35.5 14.5t-13.5 36.5t13.5 36.5t35.5 14.5q21 0 34.5 -14.5
t13.5 -36.5z" />
    <glyph glyph-name="Mdotaccent" unicode="&#x1e40;" horiz-adv-x="923" 
d="M900 0h-86l-167 531l-198 -554l-205 552l-164 -529h-57l233 706l206 -549l205 549zM511 814q0 -22 -13.5 -36.5t-34.5 -14.5q-22 0 -35.5 14.5t-13.5 36.5t13.5 36.5t35.5 14.5q21 0 34.5 -14.5t13.5 -36.5z" />
    <glyph glyph-name="mdotaccent" unicode="&#x1e41;" horiz-adv-x="899" 
d="M160 296v-296h-74v490h74v-76q22 33 61.5 58.5t94.5 25.5q117 0 155 -100q25 41 70 70.5t103 29.5q72 0 122 -46t50 -159v-293h-74v291q0 84 -36 118t-89 34q-56 0 -92.5 -40t-36.5 -107v-3v-293h-74v291q0 84 -36 118t-89 34q-56 0 -92.5 -40t-36.5 -107zM511 641
q0 -22 -13.5 -36.5t-34.5 -14.5q-22 0 -35.5 14.5t-13.5 36.5t13.5 36.5t35.5 14.5q21 0 34.5 -14.5t13.5 -36.5z" />
    <glyph glyph-name="Pdotaccent" unicode="&#x1e56;" horiz-adv-x="597" 
d="M548 486q0 -85 -59.5 -140.5t-152.5 -55.5h-159v-290h-77v683h236q93 0 152.5 -56t59.5 -141zM466 486q0 70 -43.5 112t-107.5 42h-138v-308h138q64 0 107.5 42t43.5 112zM366 814q0 -22 -13.5 -36.5t-34.5 -14.5q-22 0 -35.5 14.5t-13.5 36.5t13.5 36.5t35.5 14.5
q21 0 34.5 -14.5t13.5 -36.5z" />
    <glyph glyph-name="pdotaccent" unicode="&#x1e57;" horiz-adv-x="609" 
d="M86 490h72v-80q23 38 70 63t101 25q97 0 164.5 -74.5t67.5 -178.5t-67.5 -178.5t-164.5 -74.5q-54 0 -101 25t-70 63v-273h-72v683zM158 245q0 -99 45 -157.5t119 -58.5q69 0 115 62.5t46 153.5t-46 154t-115 63q-74 0 -119 -60t-45 -157zM378 641q0 -22 -13.5 -36.5
t-34.5 -14.5q-22 0 -35.5 14.5t-13.5 36.5t13.5 36.5t35.5 14.5q21 0 34.5 -14.5t13.5 -36.5z" />
    <glyph glyph-name="Sdotaccent" unicode="&#x1e60;" 
d="M514 197q0 -89 -67.5 -147t-167.5 -58q-95 0 -158.5 51.5t-74.5 124.5l65 18q3 -60 54.5 -105.5t116.5 -45.5q67 0 113 41.5t46 103.5q0 56 -40.5 88.5t-133.5 54.5q-107 25 -151.5 67.5t-44.5 110.5q0 82 63 136.5t155 54.5q87 0 145 -44.5t71 -105.5l-65 -17
q-8 49 -54.5 86t-99.5 37q-58 0 -100 -36.5t-42 -89.5q0 -48 37 -75t125 -49q113 -28 160.5 -75.5t47.5 -125.5zM340 814q0 -22 -13.5 -36.5t-34.5 -14.5q-22 0 -35.5 14.5t-13.5 36.5t13.5 36.5t35.5 14.5q21 0 34.5 -14.5t13.5 -36.5z" />
    <glyph glyph-name="sdotaccent" unicode="&#x1e61;" horiz-adv-x="494" 
d="M431 141q0 -64 -56 -106.5t-138 -42.5q-78 0 -130 38t-62 93l59 15q7 -48 45.5 -78.5t90.5 -30.5t89 28.5t37 69.5q0 37 -33 58t-106 37q-86 19 -124 52.5t-38 83.5q0 60 52 100t128 40q72 0 120 -33.5t59 -79.5l-58 -13q-12 38 -47 63.5t-76 25.5q-46 0 -79 -25t-33 -59
q0 -33 29.5 -51.5t100.5 -33.5q92 -21 131 -57t39 -94zM295 641q0 -22 -13.5 -36.5t-34.5 -14.5q-22 0 -35.5 14.5t-13.5 36.5t13.5 36.5t35.5 14.5q21 0 34.5 -14.5t13.5 -36.5z" />
    <glyph glyph-name="Tdotaccent" unicode="&#x1e6a;" horiz-adv-x="521" 
d="M497 636l-198 4v-640h-77v640l-198 -4v47h473v-47zM309 814q0 -22 -13.5 -36.5t-34.5 -14.5q-22 0 -35.5 14.5t-13.5 36.5t13.5 36.5t35.5 14.5q21 0 34.5 -14.5t13.5 -36.5z" />
    <glyph glyph-name="tdotaccent" unicode="&#x1e6b;" horiz-adv-x="334" 
d="M177 446v-315q0 -85 29 -131h-83q-21 53 -21 131v315l-102 -1v45l102 -1v161h75v-161l142 1v-45zM189 781q0 -22 -13.5 -36.5t-34.5 -14.5q-22 0 -35.5 14.5t-13.5 36.5t13.5 36.5t35.5 14.5q21 0 34.5 -14.5t13.5 -36.5z" />
    <glyph glyph-name="Wgrave" unicode="&#x1e80;" horiz-adv-x="923" 
d="M23 683h86l167 -531l198 554l205 -552l164 529h57l-233 -706l-205 549l-206 -549zM540 739h-40l-148 167l62 39z" />
    <glyph glyph-name="wgrave" unicode="&#x1e81;" horiz-adv-x="782" 
d="M26 490h78l145 -372l158 395l164 -395l129 372h56l-201 -517l-164 385l-164 -385zM470 566h-40l-148 167l62 39z" />
    <glyph glyph-name="Wacute" unicode="&#x1e82;" horiz-adv-x="923" 
d="M23 683h86l167 -531l198 554l205 -552l164 529h57l-233 -706l-205 549l-206 -549zM600 906l-148 -167h-40l126 206z" />
    <glyph glyph-name="wacute" unicode="&#x1e83;" horiz-adv-x="782" 
d="M26 490h78l145 -372l158 395l164 -395l129 372h56l-201 -517l-164 385l-164 -385zM530 733l-148 -167h-40l126 206z" />
    <glyph glyph-name="Wdieresis" unicode="&#x1e84;" horiz-adv-x="923" 
d="M23 683h86l167 -531l198 554l205 -552l164 529h57l-233 -706l-205 549l-206 -549zM435 814q0 -22 -13.5 -36.5t-34.5 -14.5q-22 0 -35.5 14.5t-13.5 36.5t13.5 36.5t35.5 14.5q21 0 34.5 -14.5t13.5 -36.5zM610 814q0 -22 -13.5 -36.5t-34.5 -14.5q-22 0 -35.5 14.5
t-13.5 36.5t13.5 36.5t35.5 14.5q21 0 34.5 -14.5t13.5 -36.5z" />
    <glyph glyph-name="wdieresis" unicode="&#x1e85;" horiz-adv-x="782" 
d="M26 490h78l145 -372l158 395l164 -395l129 372h56l-201 -517l-164 385l-164 -385zM368 641q0 -22 -13.5 -36.5t-34.5 -14.5q-22 0 -35.5 14.5t-13.5 36.5t13.5 36.5t35.5 14.5q21 0 34.5 -14.5t13.5 -36.5zM543 641q0 -22 -13.5 -36.5t-34.5 -14.5q-22 0 -35.5 14.5
t-13.5 36.5t13.5 36.5t35.5 14.5q21 0 34.5 -14.5t13.5 -36.5z" />
    <glyph glyph-name="endash" unicode="&#x2013;" horiz-adv-x="500" 
d="M500 226h-500v59h500v-59z" />
    <glyph glyph-name="emdash" unicode="&#x2014;" horiz-adv-x="1000" 
d="M1000 226h-1000v59h1000v-59z" />
    <glyph glyph-name="quoteleft" unicode="&#x2018;" horiz-adv-x="290" 
d="M197 424l-148 242l68 34l125 -276h-45z" />
    <glyph glyph-name="quoteright" unicode="&#x2019;" horiz-adv-x="290" 
d="M242 666l-148 -242h-45l125 276z" />
    <glyph glyph-name="quotesinglbase" unicode="&#x201a;" horiz-adv-x="290" 
d="M202 87l-148 -242h-45l125 276z" />
    <glyph glyph-name="quotedblleft" unicode="&#x201c;" horiz-adv-x="446" 
d="M344 424l-135 242l68 34l112 -276h-45zM197 424l-148 242l68 34l125 -276h-45z" />
    <glyph glyph-name="quotedblright" unicode="&#x201d;" horiz-adv-x="446" 
d="M237 666l-135 -242h-45l112 276zM397 666l-148 -242h-45l125 276z" />
    <glyph glyph-name="quotedblbase" unicode="&#x201e;" horiz-adv-x="446" 
d="M195 87l-135 -242h-45l112 276zM355 87l-148 -242h-45l125 276z" />
    <glyph glyph-name="dagger" unicode="&#x2020;" horiz-adv-x="579" 
d="M522 406h-194v-570h-77v570h-194v56h194v238h77v-238h194v-56z" />
    <glyph glyph-name="daggerdbl" unicode="&#x2021;" horiz-adv-x="579" 
d="M522 277h-194v-441h-77v441h-194v55h194v126h-194v56h194v186h77v-186h194v-56h-194v-126h194v-55z" />
    <glyph glyph-name="bullet" unicode="&#x2022;" horiz-adv-x="500" 
d="M416 336q0 -69 -49 -117.5t-118 -48.5q-68 0 -117 49t-49 117t49 117t117 49q69 0 118 -48.5t49 -117.5z" />
    <glyph glyph-name="ellipsis" unicode="&#x2026;" horiz-adv-x="1000" 
d="M215 43q0 -22 -13.5 -36.5t-34.5 -14.5q-22 0 -35.5 14.5t-13.5 36.5t13.5 36.5t35.5 14.5q21 0 34.5 -14.5t13.5 -36.5zM548 43q0 -22 -13.5 -36.5t-34.5 -14.5q-22 0 -35.5 14.5t-13.5 36.5t13.5 36.5t35.5 14.5q21 0 34.5 -14.5t13.5 -36.5zM881 43q0 -22 -13.5 -36.5
t-34.5 -14.5q-22 0 -35.5 14.5t-13.5 36.5t13.5 36.5t35.5 14.5q21 0 34.5 -14.5t13.5 -36.5z" />
    <glyph glyph-name="perthousand" unicode="&#x2030;" horiz-adv-x="1132" 
d="M361 516q0 -65 -47.5 -111.5t-112.5 -46.5q-66 0 -113 46.5t-47 111.5t47 111.5t113 46.5q65 0 112.5 -46.5t47.5 -111.5zM294 517q0 52 -26 87t-67 35t-67 -35t-26 -87q0 -53 26 -88t67 -35t67 35t26 88zM606 674l-393 -682h-47l393 682h47zM733 150q0 -65 -47.5 -111.5
t-112.5 -46.5q-66 0 -113 46.5t-47 111.5t47 111.5t113 46.5q65 0 112.5 -46.5t47.5 -111.5zM666 151q0 52 -26 87t-67 35t-67 -35t-26 -87q0 -53 26 -88t67 -35t67 35t26 88zM1091 150q0 -65 -47.5 -111.5t-112.5 -46.5q-66 0 -113 46.5t-47 111.5t47 111.5t113 46.5
q65 0 112.5 -46.5t47.5 -111.5zM1024 151q0 52 -26 87t-67 35t-67 -35t-26 -87q0 -53 26 -88t67 -35t67 35t26 88z" />
    <glyph glyph-name="guilsinglleft" unicode="&#x2039;" horiz-adv-x="366" 
d="M296 79l-25 -25l-230 202l230 202l25 -25l-148 -177z" />
    <glyph glyph-name="guilsinglright" unicode="&#x203a;" horiz-adv-x="366" 
d="M95 54l-25 25l148 177l-148 177l25 25l230 -202z" />
    <glyph glyph-name="fraction" unicode="&#x2044;" horiz-adv-x="134" 
d="M287 674l-393 -682h-47l393 682h47z" />
    <glyph glyph-name="fraction" unicode="&#x2215;" horiz-adv-x="134" 
d="M287 674l-393 -682h-47l393 682h47z" />
    <glyph glyph-name="Euro" unicode="&#x20ac;" 
d="M376 35q39 0 75 15t48.5 25t32.5 28l25 -27q-77 -84 -187 -84q-98 0 -162.5 70t-85.5 185h-98l13 49h78q-1 14 -1 37q0 16 2 50h-86l13 49h81q24 108 92 175t162 67q102 0 173 -71l-45 -47q-65 77 -130 77q-66 0 -111.5 -55t-62.5 -146h271l-13 -49h-264q-2 -18 -2 -50
q0 -23 1 -37h241l-13 -49h-223q16 -97 61 -154.5t115 -57.5z" />
    <glyph glyph-name="trademark" unicode="&#x2122;" horiz-adv-x="854" 
d="M785 314h-55l-86 271l-104 -291l-109 290l-84 -270h-39l130 389l109 -290l108 290zM310 650l-115 2v-338h-49v338l-115 -2v33h279v-33z" />
    <glyph glyph-name="partialdiff" unicode="&#x2202;" 
d="M521 291q0 -67 -16 -120.5t-40.5 -86t-57.5 -54t-64 -30t-62 -8.5q-97 0 -165 68t-68 165q0 99 70 164t162 65q89 0 157 -61q-48 227 -302 262l21 53q176 -22 270.5 -136t94.5 -281zM449 222q0 80 -47 136.5t-114 56.5q-66 0 -113.5 -56.5t-47.5 -136.5q0 -81 47 -137
t114 -56t114 56t47 137z" />
    <glyph glyph-name="product" unicode="&#x220f;" horiz-adv-x="738" 
d="M702 -193h-254v43h89v777h-336v-777h89v-43h-254v43h89v777h-89v56h666v-56h-89v-777h89v-43z" />
    <glyph glyph-name="summation" unicode="&#x2211;" horiz-adv-x="738" 
d="M646 -193h-587v55l260 392l-260 375v54h578v-191h-46v135h-439l257 -372l-260 -392h451v134h46v-190z" />
    <glyph glyph-name="minus" unicode="&#x2212;" horiz-adv-x="600" 
d="M546 219h-492v68h492v-68z" />
    <glyph glyph-name="radical" unicode="&#x221a;" horiz-adv-x="666" 
d="M693 744h-139l-289 -758l-111 328h-67v43h112l68 -213l240 643h186v-43z" />
    <glyph glyph-name="infinity" unicode="&#x221e;" horiz-adv-x="666" 
d="M648 256q0 -66 -39 -107.5t-103 -41.5q-91 0 -173 103q-79 -103 -171 -103q-64 0 -104 41t-40 106t40.5 106t104.5 41q89 0 170 -103q78 103 171 103q64 0 104 -40.5t40 -104.5zM592 252q0 41 -24 66t-64 25q-36 0 -65.5 -19t-69.5 -70q71 -89 137 -89q39 0 62.5 23.5
t23.5 63.5zM296 254q-37 48 -68.5 68.5t-67.5 20.5q-38 0 -62 -24.5t-24 -64.5t23.5 -64.5t61.5 -24.5q67 0 137 89z" />
    <glyph glyph-name="integral" unicode="&#x222b;" 
d="M460 607h-56q0 64 -7.5 85t-33.5 21q-41 0 -41 -67v-721q0 -59 -24.5 -95t-74.5 -36q-54 0 -77 35t-23 119h56q0 -72 7.5 -94.5t33.5 -22.5q41 0 41 67v721q0 59 24.5 95t74.5 36q52 0 76 -33.5t24 -109.5z" />
    <glyph glyph-name="approxequal" unicode="&#x2248;" horiz-adv-x="600" 
d="M186 342q-26 0 -47 -18t-28.5 -32t-11.5 -26l-44 9q41 128 150 128q36 0 104 -32.5t105 -32.5q26 0 47 18t28.5 32t11.5 26l44 -9q-43 -134 -150 -134q-37 0 -105 35.5t-104 35.5zM186 174q-26 0 -47 -18t-28.5 -32t-11.5 -26l-44 9q41 128 150 128q36 0 104 -32.5
t105 -32.5q26 0 47 18t28.5 32t11.5 26l44 -9q-43 -134 -150 -134q-37 0 -105 35.5t-104 35.5z" />
    <glyph glyph-name="notequal" unicode="&#x2260;" horiz-adv-x="600" 
d="M546 118h-278l-59 -118h-72l59 118h-142v68h176l68 134h-244v68h278l59 118h72l-59 -118h142v-68h-176l-68 -134h244v-68z" />
    <glyph glyph-name="lessequal" unicode="&#x2264;" horiz-adv-x="600" 
d="M546 96l-492 202v62l492 202v-67l-411 -166l411 -166v-67zM546 0h-492v68h492v-68z" />
    <glyph glyph-name="greaterequal" unicode="&#x2265;" horiz-adv-x="600" 
d="M546 298l-492 -202v67l411 166l-411 166v67l492 -202v-62zM546 0h-492v68h492v-68z" />
    <glyph glyph-name="lozenge" unicode="&#x25ca;" horiz-adv-x="666" 
d="M583 333l-252 -348l-252 348l252 348zM511 333l-180 249l-180 -249l180 -249z" />
    <glyph glyph-name="apple" horiz-adv-x="782" 
d="M534 691q4 -70 -42 -121.5t-107 -51.5q1 72 41 118t108 55zM696 168q-38 -92 -82.5 -143t-86.5 -51q-21 0 -54 14t-64 14q-36 0 -75.5 -15t-53.5 -15q-45 0 -91 55t-74.5 133t-28.5 146q0 97 52 158t135 61q31 0 72 -15t52 -15q17 0 59.5 16t75.5 16q93 0 145 -71
q-44 -33 -62.5 -65t-18.5 -74q0 -50 26.5 -89.5t73.5 -59.5z" />
    <glyph glyph-name="numbersign.tnum" 
d="M544 403h-118l-20 -127h109v-57h-117l-34 -219h-60l33 219h-129l-34 -219h-60l33 219h-109v57h118l20 127h-109v57h117l32 206h60l-31 -206h129l32 206h60l-31 -206h109v-57zM366 403h-130l-20 -127h130z" />
    <glyph glyph-name="dollar.tnum" 
d="M263 -89v107q-79 5 -131 50.5t-61 107.5l59 17q1 -50 40.5 -88.5t92.5 -46.5v262q-89 23 -129 61t-40 95q0 67 48 114.5t121 55.5v99h48v-98q70 -6 116.5 -44.5t57.5 -89.5l-59 -15q-7 38 -40 68.5t-75 38.5v-226q96 -25 139 -67.5t43 -109.5q0 -73 -51.5 -123.5
t-130.5 -58.5v-109h-48zM427 187q0 46 -26.5 73.5t-89.5 46.5v-248q50 8 83 43.5t33 84.5zM160 495q0 -39 23 -62t80 -41v214q-44 -8 -73.5 -38.5t-29.5 -72.5z" />
    <glyph glyph-name="one.tnum" 
d="M362 0h-76l4 613l-141 -82l-26 58l243 99z" />
    <glyph glyph-name="two.tnum" 
d="M478 0h-446q123 115 200 197t111 136.5t43.5 85t9.5 67.5q0 65 -34 106t-87 41q-46 0 -83.5 -32t-59.5 -91l-59 35q30 62 84 95.5t120 33.5q85 0 141.5 -53.5t56.5 -134.5q0 -32 -4 -55t-22 -60t-52 -76.5t-96 -98t-152 -130.5l329 6v-72z" />
    <glyph glyph-name="three.tnum" 
d="M243 -8q-122 0 -192 73l51 50q49 -82 141 -82q72 0 116 47t44 116q0 61 -45.5 96.5t-130.5 35.5q-25 0 -63 -5v62q32 -2 44 -2q88 0 130.5 36.5t42.5 88.5q0 59 -33 92t-83 33q-89 0 -131 -84l-59 35q68 90 190 90q83 0 138.5 -46t55.5 -120q0 -50 -27.5 -91t-75.5 -55
q61 -16 94 -60.5t33 -103.5q0 -88 -68 -147t-172 -59z" />
    <glyph glyph-name="four.tnum" 
d="M551 187h-104v-187h-76v188h-357l433 500v-433h104v-68zM371 255v281l-244 -281h244z" />
    <glyph glyph-name="five.tnum" 
d="M496 225q0 -105 -77 -169t-184 -64q-109 0 -182 73l51 50q49 -82 138 -82q71 0 122.5 57.5t51.5 134.5t-45.5 129.5t-119.5 52.5q-36 0 -74.5 -15t-64.5 -35v309h335v-72l-279 5v-171q43 24 102 24q99 0 162.5 -62.5t63.5 -164.5z" />
    <glyph glyph-name="six.tnum" 
d="M55 250q0 57 21.5 115t53.5 103.5t76 89.5t82 74t78 56l57 -42q-72 -43 -148 -112.5t-106 -130.5q52 49 136 49q95 0 159 -63t64 -164q0 -91 -70.5 -162t-162.5 -71q-103 0 -171.5 69t-68.5 189zM127 222q0 -79 47 -134.5t114 -55.5q66 0 113.5 55.5t47.5 134.5
t-47.5 135t-113.5 56q-67 0 -114 -56t-47 -135z" />
    <glyph glyph-name="seven.tnum" 
d="M540 666l-332 -666h-85l337 600l-377 -6v72h457z" />
    <glyph glyph-name="eight.tnum" 
d="M524 190q0 -84 -67 -141t-166 -57t-166 57t-67 141q0 59 33.5 103.5t93.5 64.5q-49 18 -75.5 55t-26.5 87q0 73 60.5 123.5t147.5 50.5t147.5 -50.5t60.5 -123.5q0 -50 -26.5 -87t-75.5 -55q60 -20 93.5 -64.5t33.5 -103.5zM419 507q0 53 -35 89.5t-93 36.5t-93 -36.5
t-35 -89.5q0 -54 35 -90.5t93 -36.5q57 0 92.5 37t35.5 90zM444 178q0 64 -42.5 106.5t-110.5 42.5t-110.5 -42.5t-42.5 -106.5q0 -61 42.5 -103t110.5 -42t110.5 42t42.5 103z" />
    <glyph glyph-name="nine.tnum" 
d="M523 416q0 -57 -21.5 -115t-53.5 -103.5t-76 -89.5t-82 -74t-78 -56l-57 42q72 43 148 112.5t106 130.5q-52 -49 -136 -49q-95 0 -159 63t-64 164q0 91 70.5 162t162.5 71q103 0 171.5 -69t68.5 -189zM451 444q0 79 -47 134.5t-114 55.5q-66 0 -113.5 -55.5t-47.5 -134.5
t47.5 -135t113.5 -56q67 0 114 56t47 135z" />
    <glyph glyph-name="zero.tnum" 
d="M523 333q0 -174 -66 -257.5t-166 -83.5q-103 0 -167.5 83t-64.5 258t64.5 258t167.5 83q100 0 166 -83.5t66 -257.5zM443 333q0 168 -40.5 234t-111.5 66q-152 0 -152 -300t152 -300q68 0 110 72t42 228z" />
    <glyph glyph-name="cent.tnum" 
d="M279 -18v105q-93 11 -153 81.5t-60 167.5q0 96 60 167.5t153 84.5v94h48v-91q86 -4 161 -59l-39 -47q-54 61 -122 67v-424q36 2 69.5 17t45.5 24.5t31 26.5l25 -27q-70 -76 -171 -84v-103h-48zM144 336q-1 -84 37.5 -136.5t97.5 -67.5v417q-61 -15 -98 -74t-37 -139z" />
    <glyph glyph-name="sterling.tnum" 
d="M521 605l-48 -47l-7 9q-8 9 -11 12l-12 12t-14.5 13t-16 10.5t-20 10t-21.5 6t-25 2.5q-68 0 -105 -46.5t-37 -116.5q0 -24 7 -50t13 -40l7 -14h200v-56h-180q27 -53 23 -101.5t-21.5 -81.5t-47.5 -60l307 5v-72h-438v65l74 1q35 35 44.5 83.5t1 87t-26.5 73.5h-111v56
h91q-22 46 -22 104q0 93 67.5 148.5t153.5 55.5q106 0 175 -69z" />
    <glyph glyph-name="yen.tnum" 
d="M74 353h147l-191 313h92l187 -313h1l173 313h69l-191 -313h147v-49h-177v-95h169v-49h-169v-160h-80v160h-169v49h169v95h-177v49z" />
    <glyph glyph-name="florin.tnum" 
d="M304 371l-67 -370q-40 -202 -188 -202q-38 0 -74 15t-56 39l48 40q29 -58 82 -58q78 0 110 166l67 370l-101 -1l9 45l100 -1l14 75q40 202 188 202q38 0 74 -15t56 -39l-48 -40q-29 58 -82 58q-78 0 -110 -166l-14 -75l143 1l-9 -45z" />
    <glyph glyph-name="Euro.tnum" 
d="M376 35q39 0 75 15t48.5 25t32.5 28l25 -27q-77 -84 -187 -84q-98 0 -162.5 70t-85.5 185h-98l13 49h78q-1 14 -1 37q0 16 2 50h-86l13 49h81q24 108 92 175t162 67q102 0 173 -71l-45 -47q-65 77 -130 77q-66 0 -111.5 -55t-62.5 -146h271l-13 -49h-264q-2 -18 -2 -50
q0 -23 1 -37h241l-13 -49h-223q16 -97 61 -154.5t115 -57.5z" />
    <glyph glyph-name="endash.tnum" 
d="M582 226h-582v59h582v-59z" />
    </font>
</defs>
</svg>
