<?xml version="1.0" standalone="no"?>
<!DOCTYPE svg PUBLIC "-//W3C//DTD SVG 1.1//EN" "http://www.w3.org/Graphics/SVG/1.1/DTD/svg11.dtd" >
<svg>
<metadata>
Created by FontForge 20110222 at Mon Dec  1 04:59:35 2014
 By deploy user
Copyright (c) Alex Kaczun, dba Type Innovations, 2011. All rights reserved.
</metadata>
<defs>
<font id="ContaxSans56-Italic" horiz-adv-x="582" >
  <font-face 
    font-family="Contax Sans 56"
    font-weight="400"
    font-style="italic"
    font-stretch="normal"
    units-per-em="1000"
    panose-1="2 0 6 3 3 0 0 2 0 4"
    ascent="800"
    descent="-200"
    x-height="490"
    cap-height="683"
    bbox="-204 -246 1079 1148"
    underline-thickness="20"
    underline-position="-123"
    unicode-range="U+0020-FB04"
  />
<missing-glyph horiz-adv-x="290" 
 />
    <glyph glyph-name="ff" unicode="ff" horiz-adv-x="688" 
d="M792 636l-46 -39q-29 58 -84 58q-36 0 -67.5 -37.5t-47.5 -128.5l142 1l-8 -45l-142 1l-82 -446h-75l82 446l-102 -1l8 45l102 -1q17 105 68.5 153.5t114.5 48.5q84 0 137 -55zM448 636l-46 -39q-29 58 -84 58q-36 0 -67.5 -37.5t-47.5 -128.5l142 1l-8 -45l-142 1
l-82 -446h-75l82 446l-102 -1l8 45l102 -1q17 105 68.5 153.5t114.5 48.5q84 0 137 -55z" />
    <glyph glyph-name="fi" unicode="fi" horiz-adv-x="613" 
d="M448 636l-46 -39q-29 58 -84 58q-36 0 -67.5 -37.5t-47.5 -128.5l142 1l-8 -45l-142 1l-82 -446h-75l82 446l-102 -1l8 45l102 -1q17 105 68.5 153.5t114.5 48.5q84 0 137 -55zM447 0h-74l93 490h74zM528 592q-18 0 -30.5 13.5t-12.5 30.5q0 25 15 40t38 15
q18 0 30.5 -13.5t12.5 -30.5q0 -25 -15 -40t-38 -15z" />
    <glyph glyph-name="fl" unicode="fl" horiz-adv-x="613" 
d="M448 636l-46 -39q-29 58 -84 58q-36 0 -67.5 -37.5t-47.5 -128.5l142 1l-8 -45l-142 1l-82 -446h-75l82 446l-102 -1l8 45l102 -1q17 105 68.5 153.5t114.5 48.5q84 0 137 -55zM447 0h-74l130 683h74z" />
    <glyph glyph-name="ffi" unicode="ffi" horiz-adv-x="957" 
d="M792 636l-46 -39q-29 58 -84 58q-36 0 -67.5 -37.5t-47.5 -128.5l142 1l-8 -45l-142 1l-82 -446h-75l82 446l-102 -1l8 45l102 -1q17 105 68.5 153.5t114.5 48.5q84 0 137 -55zM791 0h-74l93 490h74zM872 592q-18 0 -30.5 13.5t-12.5 30.5q0 25 15 40t38 15
q18 0 30.5 -13.5t12.5 -30.5q0 -25 -15 -40t-38 -15zM448 636l-46 -39q-29 58 -84 58q-36 0 -67.5 -37.5t-47.5 -128.5l142 1l-8 -45l-142 1l-82 -446h-75l82 446l-102 -1l8 45l102 -1q17 105 68.5 153.5t114.5 48.5q84 0 137 -55z" />
    <glyph glyph-name="ffl" unicode="ffl" horiz-adv-x="957" 
d="M792 636l-46 -39q-29 58 -84 58q-36 0 -67.5 -37.5t-47.5 -128.5l142 1l-8 -45l-142 1l-82 -446h-75l82 446l-102 -1l8 45l102 -1q17 105 68.5 153.5t114.5 48.5q84 0 137 -55zM791 0h-74l130 683h74zM448 636l-46 -39q-29 58 -84 58q-36 0 -67.5 -37.5t-47.5 -128.5
l142 1l-8 -45l-142 1l-82 -446h-75l82 446l-102 -1l8 45l102 -1q17 105 68.5 153.5t114.5 48.5q84 0 137 -55z" />
    <glyph glyph-name=".notdef" horiz-adv-x="290" 
 />
    <glyph glyph-name=".null" horiz-adv-x="0" 
 />
    <glyph glyph-name="nonmarkingreturn" horiz-adv-x="333" 
 />
    <glyph glyph-name="space" unicode=" " horiz-adv-x="290" 
 />
    <glyph glyph-name="space" unicode="&#xa0;" horiz-adv-x="290" 
 />
    <glyph glyph-name="exclam" unicode="!" horiz-adv-x="277" 
d="M134 194h-46l73 489h86zM80 -8q-18 0 -30.5 13.5t-12.5 30.5q0 25 15 40t38 15q18 0 30.5 -13.5t12.5 -30.5q0 -25 -15 -40t-38 -15z" />
    <glyph glyph-name="quotedbl" unicode="&#x22;" horiz-adv-x="426" 
d="M174 457h-44l37 258h68zM322 457h-44l37 258h68z" />
    <glyph glyph-name="numbersign" unicode="#" 
d="M546 403h-118l-25 -127h109l-2 -57h-117l-42 -219h-60l41 219h-129l-42 -219h-60l41 219h-109l2 57h118l25 127h-109l2 57h117l40 206h60l-39 -206h129l40 206h60l-39 -206h109zM368 403h-130l-25 -127h130z" />
    <glyph glyph-name="dollar" unicode="$" 
d="M509 515l-60 -15q-25 81 -86 104l-43 -227q28 -12 45.5 -21t40.5 -25t36 -32t22.5 -40.5t9.5 -53.5q0 -75 -65 -129.5t-157 -55.5l-21 -109h-48l21 113q-66 13 -106 57.5t-48 96.5l62 17q2 -44 29.5 -80t70.5 -50l50 259q-34 16 -53.5 27.5t-43 30.5t-34.5 43t-11 54
q0 68 59.5 118.5t143.5 51.5l19 96h48l-19 -100q59 -11 95 -47.5t43 -82.5zM404 189q0 38 -25.5 63.5t-72.5 50.5l-47 -244q58 1 101.5 38t43.5 92zM189 497q0 -34 22.5 -56.5t64.5 -43.5l40 214q-50 -2 -88.5 -35t-38.5 -79z" />
    <glyph glyph-name="percent" unicode="%" horiz-adv-x="774" 
d="M236 674q60 0 99.5 -41t39.5 -99q0 -74 -53 -125t-131 -51q-60 0 -99 41t-39 99q0 74 53 125t130 51zM199 394q44 0 77.5 42t33.5 106q0 44 -22 70t-59 26q-44 0 -78 -42t-34 -106q0 -44 22.5 -70t59.5 -26zM629 674l-440 -682h-47l440 682h47zM580 308q60 0 99.5 -41
t39.5 -99q0 -74 -53 -125t-131 -51q-60 0 -99 41t-39 99q0 74 53 125t130 51zM543 28q44 0 77.5 42t33.5 106q0 44 -22 70t-59 26q-44 0 -78 -42t-34 -106q0 -44 22.5 -70t59.5 -26z" />
    <glyph glyph-name="ampersand" unicode="&#x26;" horiz-adv-x="762" 
d="M692 380h-117q10 -32 10 -68q0 -106 -67 -190l100 -122h-97l-54 68q-37 -33 -91 -54.5t-113 -21.5q-109 0 -161 54.5t-52 127.5q0 71 48 124.5t110 81.5q-58 69 -58 125q0 68 53.5 119t134.5 51q89 0 143 -56l-41 -46q-41 61 -105 61q-48 0 -79.5 -33.5t-31.5 -80.5
q0 -21 12 -45.5t20.5 -35t31.5 -38.5l195 -236q35 56 35 123q0 53 -22 92h-90l8 55h286zM436 105l-205 248q-103 -63 -103 -179q0 -58 40 -100t104 -42q47 0 93 21.5t71 51.5z" />
    <glyph glyph-name="quotesingle" unicode="'" horiz-adv-x="278" 
d="M174 457h-44l37 258h68z" />
    <glyph glyph-name="parenleft" unicode="(" horiz-adv-x="340" 
d="M226 -185l-44 -21q-126 211 -126 398q0 83 21.5 159.5t61.5 140t79 109.5t90 95l36 -31q-211 -231 -211 -492q0 -178 93 -358z" />
    <glyph glyph-name="parenright" unicode=")" horiz-adv-x="340" 
d="M74 675l44 21q126 -211 126 -398q0 -83 -21.5 -159.5t-61.5 -140t-79 -109.5t-90 -95l-36 31q211 231 211 492q0 178 -93 358z" />
    <glyph glyph-name="asterisk" unicode="*" 
d="M496 523l-153 -4l92 -123l-72 -38l-51 147l-89 -129l-63 54l125 97l-146 45l36 74l127 -89l-3 155h84l-47 -160l146 52z" />
    <glyph glyph-name="plus" unicode="+" horiz-adv-x="600" 
d="M530 219h-212l-38 -219h-68l38 219h-212l11 68h212l38 219h68l-38 -219h212z" />
    <glyph glyph-name="comma" unicode="," horiz-adv-x="277" 
d="M151 74l-136 -224h-45l111 250z" />
    <glyph glyph-name="hyphen" unicode="-" horiz-adv-x="345" 
d="M270 221h-249l13 69h249z" />
    <glyph glyph-name="hyphen" unicode="&#xad;" horiz-adv-x="345" 
d="M270 221h-249l13 69h249z" />
    <glyph glyph-name="period" unicode="." horiz-adv-x="277" 
d="M86 -8q-18 0 -30.5 13.5t-12.5 30.5q0 25 15 40t38 15q18 0 30.5 -13.5t12.5 -30.5q0 -25 -15 -40t-38 -15z" />
    <glyph glyph-name="slash" unicode="/" horiz-adv-x="398" 
d="M409 733l-369 -821l-51 21l368 821z" />
    <glyph glyph-name="zero" unicode="0" 
d="M455 440q0 193 -122 193q-55 0 -98 -45.5t-64.5 -113t-32 -130.5t-10.5 -114q0 -196 120 -196q55 0 98 46t65 114t33 132t11 114zM49 231q0 78 17 154t49.5 142t89 106.5t127.5 40.5q98 0 149.5 -64t51.5 -175q0 -78 -17 -154t-49.5 -142t-89 -106.5t-127.5 -40.5
q-98 0 -149.5 64t-51.5 175z" />
    <glyph glyph-name="one" unicode="1" horiz-adv-x="374" 
d="M192 0h-75l121 613l-156 -82l-17 58l260 99z" />
    <glyph glyph-name="two" unicode="2" horiz-adv-x="532" 
d="M400 0h-445q193 160 281.5 244.5t125.5 145.5t37 127q0 52 -30 84t-77 32q-93 0 -158 -123l-54 35q84 129 212 129q78 0 130.5 -45.5t52.5 -115.5q0 -66 -31 -121.5t-114.5 -131t-248.5 -194.5l330 6z" />
    <glyph glyph-name="three" unicode="3" horiz-adv-x="532" 
d="M197 -8q-132 0 -193 73l57 50q42 -82 136 -82q76 0 123 51.5t47 133.5q0 51 -40.5 80.5t-116.5 29.5q-28 0 -66 -5l10 62q30 -2 45 -2q100 0 147.5 41.5t47.5 106.5q0 47 -31.5 74.5t-72.5 27.5q-86 0 -141 -84l-53 35q82 90 194 90q76 0 128 -43.5t52 -108.5
q0 -54 -35 -99.5t-93 -60.5q50 -14 77 -54t27 -90q0 -98 -69.5 -162t-179.5 -64z" />
    <glyph glyph-name="four" unicode="4" 
d="M523 187h-105l-32 -187h-75l32 188h-355l517 500l-75 -433h105zM355 255l48 281l-292 -281h244z" />
    <glyph glyph-name="five" unicode="5" horiz-adv-x="532" 
d="M377 242q0 159 -140 159q-37 0 -78.5 -12.5t-68.5 -31.5l59 309h335l-14 -67h-278l-33 -170q42 17 100 17q81 0 139 -53.5t58 -150.5q0 -105 -79 -177.5t-182 -72.5q-132 0 -193 73l57 50q42 -82 136 -82q68 0 125 61t57 148z" />
    <glyph glyph-name="six" unicode="6" 
d="M312 452q88 0 143 -54t55 -138q0 -111 -75.5 -189.5t-187.5 -78.5q-87 0 -142.5 58.5t-55.5 143.5q0 79 32.5 158t85.5 142t112.5 112t120.5 82l54 -42q-70 -33 -142.5 -97.5t-114.5 -130.5q55 34 115 34zM254 31q72 0 126 67t54 166q0 66 -35 107.5t-94 41.5
q-79 0 -129.5 -65.5t-50.5 -167.5q0 -66 35 -107.5t94 -41.5z" />
    <glyph glyph-name="seven" unicode="7" horiz-adv-x="500" 
d="M535 666l-415 -666h-82l408 600l-382 -6l14 72h457z" />
    <glyph glyph-name="eight" unicode="8" 
d="M503 219q0 -47 -17 -86t-44.5 -64.5t-62 -43t-69 -25.5t-66.5 -8q-95 0 -153 48t-58 123q0 68 43 121.5t118 75.5q-36 12 -61.5 44t-25.5 81q0 82 67 135.5t163 53.5q85 0 137.5 -42.5t52.5 -108.5q0 -56 -35 -100.5t-92 -64.5q50 -17 76.5 -53.5t26.5 -85.5zM298 380
q62 0 106 41t44 108q0 46 -29.5 75t-81.5 29q-64 0 -106.5 -44t-42.5 -104q0 -46 29.5 -75.5t80.5 -29.5zM246 33q70 0 123.5 46.5t53.5 124.5q0 55 -35 89t-96 34q-74 0 -126.5 -50.5t-52.5 -120.5q0 -53 36 -88t97 -35z" />
    <glyph glyph-name="nine" unicode="9" 
d="M272 214q-88 0 -143 54t-55 138q0 111 75.5 189.5t187.5 78.5q87 0 142.5 -58.5t55.5 -143.5q0 -79 -32.5 -158t-85.5 -142t-112.5 -112t-120.5 -82l-54 42q70 33 142.5 97.5t114.5 130.5q-55 -34 -115 -34zM330 635q-72 0 -126 -67t-54 -166q0 -66 35 -107.5t94 -41.5
q79 0 129.5 65.5t50.5 167.5q0 66 -35 107.5t-94 41.5z" />
    <glyph glyph-name="colon" unicode=":" horiz-adv-x="277" 
d="M86 -8q-18 0 -30.5 13.5t-12.5 30.5q0 25 15 40t38 15q18 0 30.5 -13.5t12.5 -30.5q0 -25 -15 -40t-38 -15zM133 290q-18 0 -30.5 13.5t-12.5 30.5q0 25 15 40t38 15q18 0 30.5 -13.5t12.5 -30.5q0 -25 -15 -40t-38 -15z" />
    <glyph glyph-name="semicolon" unicode=";" horiz-adv-x="277" 
d="M133 290q-18 0 -30.5 13.5t-12.5 30.5q0 25 15 40t38 15q18 0 30.5 -13.5t12.5 -30.5q0 -25 -15 -40t-38 -15zM151 74l-136 -224h-45l111 250z" />
    <glyph glyph-name="semicolon" unicode="&#x37e;" horiz-adv-x="277" 
d="M133 290q-18 0 -30.5 13.5t-12.5 30.5q0 25 15 40t38 15q18 0 30.5 -13.5t12.5 -30.5q0 -25 -15 -40t-38 -15zM151 74l-136 -224h-45l111 250z" />
    <glyph glyph-name="less" unicode="&#x3c;" horiz-adv-x="600" 
d="M484 -1l-449 223l11 62l528 220l-14 -74l-438 -180l375 -183z" />
    <glyph glyph-name="equal" unicode="=" horiz-adv-x="600" 
d="M547 320h-492l12 68h492zM512 118h-492l12 68h492z" />
    <glyph glyph-name="greater" unicode="&#x3e;" horiz-adv-x="600" 
d="M91 507l449 -223l-11 -62l-528 -220l14 74l438 180l-375 183z" />
    <glyph glyph-name="question" unicode="?" horiz-adv-x="464" 
d="M154 -8q-18 0 -30.5 13.5t-12.5 30.5q0 25 15 40t38 15q18 0 30.5 -13.5t12.5 -30.5q0 -25 -15 -40t-38 -15zM443 560q0 -44 -18 -80t-45 -58.5t-59 -47.5t-59.5 -47t-47 -56.5t-21.5 -76.5h-46q3 64 26.5 111t55 74t62.5 51t52.5 56t21.5 75q0 46 -27.5 71.5t-64.5 25.5
q-79 0 -140 -90l-52 37q30 41 78.5 68t111.5 27q71 0 121.5 -38t50.5 -102z" />
    <glyph glyph-name="at" unicode="@" horiz-adv-x="1000" 
d="M897 409q0 -110 -65 -189.5t-151 -79.5q-54 0 -76.5 28.5t-14.5 73.5q-47 -102 -143 -102q-60 0 -95.5 43t-35.5 113q0 97 60 170.5t133 73.5q47 0 78.5 -24.5t42.5 -61.5l21 70h63l-65 -214q-14 -49 -14 -67q0 -29 14 -44.5t38 -15.5q57 0 103.5 67t46.5 162
q0 114 -83 188.5t-215 74.5q-152 0 -263 -105t-111 -256q0 -145 92 -232t249 -87q78 0 156.5 30.5t134.5 79.5l32 -44q-55 -41 -141.5 -74.5t-181.5 -33.5q-180 0 -291.5 98t-111.5 266q0 109 60.5 201.5t160.5 145.5t215 53q164 0 261 -85t97 -223zM603 411q0 31 -21.5 55
t-56.5 24q-56 0 -98.5 -63.5t-42.5 -133.5q0 -46 22.5 -72t56.5 -26q65 0 103 77q35 75 37 139z" />
    <glyph glyph-name="A" unicode="A" horiz-adv-x="656" 
d="M594 0h-79l-73 242h-294l-145 -242h-58l434 700zM430 285l-86 284l-170 -284h256z" />
    <glyph glyph-name="B" unicode="B" horiz-adv-x="647" 
d="M117 43h187q74 0 126 49t52 132q0 46 -29.5 76.5t-95.5 30.5h-185zM180 374h158q76 0 125.5 45t49.5 116q0 47 -32.5 76t-94.5 29h-154zM588 528q0 -55 -33 -98.5t-93 -68.5q46 -20 71.5 -60.5t25.5 -91.5q0 -45 -24 -88t-64 -73q-38 -28 -80 -38t-108 -10h-249l131 683
h235q88 0 138 -40.5t50 -114.5z" />
    <glyph glyph-name="C" unicode="C" horiz-adv-x="680" 
d="M417 650q-109 0 -197 -101t-88 -259q0 -128 62 -191.5t154 -63.5q122 0 231 102l25 -28q-125 -117 -271 -117q-117 0 -199 78.5t-82 220.5q0 172 112.5 286t262.5 114q125 0 221 -78l-46 -56q-81 93 -185 93z" />
    <glyph glyph-name="D" unicode="D" horiz-adv-x="716" 
d="M117 43h75q88 0 148 14t108 50q69 52 102.5 130t33.5 160q0 50 -12 90t-28.5 65t-44 42.5t-49.5 26.5t-53.5 13.5t-47.5 5t-40 0.5h-77zM188 0h-154l131 683h172q159 0 234 -60q93 -75 93 -221q0 -47 -10.5 -97.5t-49 -118.5t-101.5 -114q-35 -26 -77 -42t-90.5 -21.5
t-75.5 -7t-72 -1.5z" />
    <glyph glyph-name="E" unicode="E" horiz-adv-x="580" 
d="M444 0h-410l131 683h394l-10 -49l-317 6l-53 -273l315 2l-9 -47l-314 2l-54 -281l337 6z" />
    <glyph glyph-name="F" unicode="F" horiz-adv-x="564" 
d="M549 634l-317 6l-53 -273l315 2l-9 -47l-314 2l-62 -324h-75l131 683h394z" />
    <glyph glyph-name="G" unicode="G" horiz-adv-x="787" 
d="M348 -8q-129 0 -211.5 82.5t-84.5 210.5q0 168 107 287t271 119q158 0 248 -125l-59 -40q-59 126 -196 126q-116 0 -203.5 -105t-87.5 -264q0 -113 60 -182.5t163 -69.5q109 0 184 74t97 202l-247 -2l6 45h328l-1 -15q-17 -143 -122 -243t-252 -100z" />
    <glyph glyph-name="H" unicode="H" horiz-adv-x="712" 
d="M546 0h-75l63 330h-362l-63 -330h-75l131 683h75l-60 -310h362l60 310h75z" />
    <glyph glyph-name="I" unicode="I" horiz-adv-x="298" 
d="M121 0h-75l131 683h75z" />
    <glyph glyph-name="J" unicode="J" horiz-adv-x="506" 
d="M471 683l-96 -500q-15 -79 -69.5 -135t-143.5 -56q-55 0 -103 22.5t-77 64.5l54 47q23 -40 56.5 -66t67.5 -26q55 0 90.5 44t50.5 121l94 484h76z" />
    <glyph glyph-name="K" unicode="K" horiz-adv-x="644" 
d="M558 0h-96l-288 341l403 342h77l-406 -318zM109 0h-75l131 683h75z" />
    <glyph glyph-name="L" unicode="L" horiz-adv-x="536" 
d="M444 0h-410l131 683h75l-123 -640l337 6z" />
    <glyph glyph-name="M" unicode="M" horiz-adv-x="923" 
d="M846 0h-77l-93 528l-284 -545l-118 545l-248 -528h-57l343 700l118 -544l293 544z" />
    <glyph glyph-name="N" unicode="N" horiz-adv-x="727" 
d="M558 -17l-376 565l-97 -548h-51l134 700l376 -565l97 548h51z" />
    <glyph glyph-name="O" unicode="O" horiz-adv-x="779" 
d="M430 691q128 0 211 -82.5t85 -209.5q0 -168 -107.5 -287.5t-270.5 -119.5q-129 0 -211.5 82.5t-84.5 210.5q0 168 107 287t271 119zM355 31q116 0 203 105.5t87 264.5q0 112 -60 181.5t-162 69.5q-116 0 -203.5 -105t-87.5 -264q0 -113 60 -182.5t163 -69.5z" />
    <glyph glyph-name="P" unicode="P" horiz-adv-x="597" 
d="M498 502q0 77 -47.5 107.5t-131.5 30.5h-90l-56 -308h125q97 0 148.5 44.5t51.5 125.5zM575 503q0 -100 -66 -156.5t-190 -56.5h-154l-53 -290h-75l125 683h183q108 0 169 -44.5t61 -135.5z" />
    <glyph glyph-name="Q" unicode="Q" horiz-adv-x="779" 
d="M430 691q128 0 211 -82.5t85 -209.5q0 -140 -77.5 -250t-202.5 -144l282 -121l-59 -54l-296 163q-5 0 -13 -0.5t-12 -0.5q-129 0 -211.5 82.5t-84.5 210.5q0 168 107 287t271 119zM355 31q116 0 203 105.5t87 264.5q0 112 -60 181.5t-162 69.5q-116 0 -203.5 -105
t-87.5 -264q0 -113 60 -182.5t163 -69.5z" />
    <glyph glyph-name="R" unicode="R" horiz-adv-x="624" 
d="M208 324h80q87 0 155.5 45t68.5 133q0 77 -47.5 107.5t-131.5 30.5h-101l-123 -640h-75l131 683h194q108 0 169 -44.5t61 -135.5q0 -92 -68 -149t-198 -61l222 -293h-92z" />
    <glyph glyph-name="S" unicode="S" 
d="M528 542l-66 -17q-17 56 -53 90t-89 34q-58 0 -102.5 -37t-44.5 -90q0 -35 23.5 -61.5t58.5 -42t76 -35.5t76 -40.5t58.5 -58t23.5 -86.5q0 -83 -73 -144.5t-175 -61.5q-96 0 -154 54t-68 122l68 18q4 -61 50 -106t110 -45q66 0 115.5 41t49.5 104q0 43 -32.5 75
t-79 53.5t-93 44.5t-79 60.5t-32.5 88.5q0 76 66.5 132.5t161.5 56.5q88 0 141.5 -44.5t62.5 -104.5z" />
    <glyph glyph-name="T" unicode="T" horiz-adv-x="521" 
d="M553 636l-198 4l-122 -640h-75l122 640l-200 -4l9 47h473z" />
    <glyph glyph-name="U" unicode="U" horiz-adv-x="721" 
d="M688 683l-65 -343q-9 -50 -16.5 -81t-20 -72t-27 -66t-37.5 -52t-51.5 -42t-68 -24.5t-88.5 -9.5q-111 0 -174.5 55t-63.5 152q0 44 15 130l68 353h75l-80 -413q-6 -28 -6 -70q0 -79 45 -122t126 -43q101 0 148 66t77 223l68 359h76z" />
    <glyph glyph-name="V" unicode="V" horiz-adv-x="656" 
d="M699 683l-434 -700l-215 700h79l171 -569l341 569h58z" />
    <glyph glyph-name="W" unicode="W" horiz-adv-x="923" 
d="M76 683h77l93 -528l284 545l118 -545l248 528h57l-343 -700l-118 544l-293 -544z" />
    <glyph glyph-name="X" unicode="X" horiz-adv-x="607" 
d="M538 0h-87l-162 303l-265 -303h-69l312 344l-182 339h86l148 -275l243 275h69l-292 -315z" />
    <glyph glyph-name="Y" unicode="Y" horiz-adv-x="570" 
d="M635 683l-315 -379l-58 -304h-75l58 304l-197 379h86l172 -331l260 331h69z" />
    <glyph glyph-name="Z" unicode="Z" horiz-adv-x="578" 
d="M492 0h-529l511 640l-381 -6l8 49h498l-512 -640l413 6z" />
    <glyph glyph-name="bracketleft" unicode="[" horiz-adv-x="340" 
d="M197 -193h-175l168 876h167l-10 -52h-92l-148 -772h100z" />
    <glyph glyph-name="backslash" unicode="\" horiz-adv-x="398" 
d="M272 -88l-253 825l54 17l253 -825z" />
    <glyph glyph-name="bracketright" unicode="]" horiz-adv-x="340" 
d="M110 -193h-171l10 52h96l148 772h-96l10 52h171z" />
    <glyph glyph-name="asciicircum" unicode="^" horiz-adv-x="566" 
d="M485 379h-41l-121 221l-183 -221h-45l244 346z" />
    <glyph glyph-name="underscore" unicode="_" horiz-adv-x="500" 
d="M418 -140h-499l10 57h500z" />
    <glyph glyph-name="grave" unicode="`" horiz-adv-x="272" 
d="M251 566h-40l-148 167l62 39z" />
    <glyph glyph-name="a" unicode="a" horiz-adv-x="535" 
d="M440 331q0 -42 -16 -117l-20 -99q-14 -70 1 -115h-74q-11 32 -1 80q-31 -37 -77.5 -62.5t-99.5 -25.5q-70 0 -110.5 34.5t-40.5 97.5q0 164 365 202q9 60 -20 97.5t-83 37.5q-79 0 -153 -84l-42 51q93 70 195 70q90 0 133 -47t43 -120zM364 291q-283 -36 -283 -167
q0 -45 27.5 -65t67.5 -20q52 0 98.5 37t64.5 89q12 43 25 126z" />
    <glyph glyph-name="b" unicode="b" horiz-adv-x="609" 
d="M91 0h-73l131 683h73l-48 -250q69 65 159 65q93 0 151.5 -59.5t58.5 -152.5q0 -120 -80 -207t-196 -87q-98 0 -162 80zM272 29q78 0 137 75t59 188q0 76 -39 122.5t-104 46.5q-88 0 -140.5 -76.5t-52.5 -199.5q0 -72 38.5 -114t101.5 -42z" />
    <glyph glyph-name="c" unicode="c" horiz-adv-x="521" 
d="M298 459q-76 0 -137 -70t-61 -181q0 -89 40 -132t102 -43q44 0 90.5 20.5t80.5 53.5l24 -27q-91 -88 -206 -88q-88 0 -147 56.5t-59 160.5q0 124 84 206.5t196 82.5q92 0 164 -60l-40 -47q-58 68 -131 68z" />
    <glyph glyph-name="d" unicode="d" horiz-adv-x="609" 
d="M514 683h73l-131 -683h-73l11 57q-69 -65 -159 -65q-93 0 -151.5 59.5t-58.5 152.5q0 120 80 207t196 87q98 0 162 -80zM296 461q-78 0 -137 -75t-59 -188q0 -76 39 -122.5t104 -46.5q88 0 140.5 76.5t52.5 199.5q0 72 -38.5 114t-101.5 42z" />
    <glyph glyph-name="e" unicode="e" horiz-adv-x="562" 
d="M111 292h308q1 7 1 20q0 69 -34.5 109.5t-92.5 40.5q-60 0 -113 -45t-69 -125zM25 209q0 123 83 206t188 83q93 0 146.5 -55t53.5 -145q0 -8 -3 -44h-390q-3 -18 -3 -46q0 -89 40 -132t102 -43q44 0 90.5 20.5t80.5 53.5l24 -27q-91 -88 -206 -88q-88 0 -147 56.5
t-59 160.5z" />
    <glyph glyph-name="f" unicode="f" horiz-adv-x="344" 
d="M448 636l-46 -39q-29 58 -84 58q-36 0 -67.5 -37.5t-47.5 -128.5l142 1l-8 -45l-142 1l-82 -446h-75l82 446l-102 -1l8 45l102 -1q17 105 68.5 153.5t114.5 48.5q84 0 137 -55z" />
    <glyph glyph-name="g" unicode="g" horiz-adv-x="609" 
d="M550 490l-90 -468q-17 -108 -86.5 -165.5t-176.5 -57.5q-131 0 -216 81l52 46q57 -90 160 -90q72 0 126 46t70 149l5 26q-69 -65 -159 -65q-93 0 -151.5 59.5t-58.5 152.5q0 120 80 207t196 87q98 0 162 -80l14 72h73zM296 461q-78 0 -137 -75t-59 -188q0 -76 39 -122.5
t104 -46.5q88 0 140.5 76.5t52.5 199.5q0 72 -38.5 114t-101.5 42z" />
    <glyph glyph-name="h" unicode="h" horiz-adv-x="593" 
d="M371 0l49 257q6 39 6 67q0 54 -30 87.5t-79 33.5q-68 0 -112.5 -46.5t-59.5 -125.5l-52 -273h-73l131 683h73l-51 -265q70 80 168 80q71 0 114 -47t43 -120q0 -52 -14 -120l-40 -211h-73z" />
    <glyph glyph-name="i" unicode="i" horiz-adv-x="269" 
d="M103 0h-74l93 490h74zM184 592q-18 0 -30.5 13.5t-12.5 30.5q0 25 15 40t38 15q18 0 30.5 -13.5t12.5 -30.5q0 -25 -15 -40t-38 -15z" />
    <glyph glyph-name="j" unicode="j" horiz-adv-x="269" 
d="M99 -27q-31 -174 -187 -174q-75 0 -116 38l42 44q27 -46 73 -46q89 0 113 132l95 523h74zM177 592q-19 0 -31.5 13.5t-12.5 30.5q0 25 15.5 40t38.5 15q19 0 31.5 -13.5t12.5 -30.5q0 -25 -15.5 -40t-38.5 -15z" />
    <glyph glyph-name="k" unicode="k" horiz-adv-x="516" 
d="M445 0h-92l-212 252l279 238h71l-279 -213zM93 0h-73l131 683h73z" />
    <glyph glyph-name="l" unicode="l" horiz-adv-x="269" 
d="M103 0h-74l130 683h74z" />
    <glyph glyph-name="m" unicode="m" horiz-adv-x="899" 
d="M677 0l49 257q12 52 12 91q0 97 -100 97q-58 0 -100.5 -41t-60.5 -109l-56 -295h-73l49 257q12 52 12 91q0 97 -100 97q-63 0 -106 -46.5t-58 -125.5l-52 -273h-73l93 490h74l-14 -72q72 80 171 80q57 0 92.5 -28t44.5 -76q77 104 192 104q67 0 103.5 -37.5t36.5 -101.5
q0 -15 -2.5 -35.5t-5.5 -35.5l-8 -40t-7 -37l-40 -211h-73z" />
    <glyph glyph-name="n" unicode="n" horiz-adv-x="593" 
d="M371 0l49 257q6 39 6 67q0 54 -30 87.5t-79 33.5q-68 0 -112.5 -46.5t-59.5 -125.5l-52 -273h-73l93 490h74l-14 -72q70 80 168 80q71 0 114 -47t43 -120q0 -52 -14 -120l-40 -211h-73z" />
    <glyph glyph-name="o" unicode="o" horiz-adv-x="580" 
d="M299 498q94 0 154 -60t60 -152q0 -122 -77.5 -208t-196.5 -86q-93 0 -152.5 59.5t-61.5 152.5q0 122 77.5 208t196.5 86zM246 29q77 0 134.5 73.5t57.5 184.5q0 78 -40 126t-106 48q-77 0 -134.5 -73.5t-57.5 -184.5q0 -78 40 -126t106 -48z" />
    <glyph glyph-name="p" unicode="p" horiz-adv-x="609" 
d="M54 -193h-73l131 683h73l-11 -57q69 65 159 65q93 0 151.5 -59.5t58.5 -152.5q0 -120 -80 -207t-196 -87q-98 0 -162 80zM272 29q78 0 137 75t59 188q0 76 -39 122.5t-104 46.5q-88 0 -140.5 -76.5t-52.5 -199.5q0 -72 38.5 -114t101.5 -42z" />
    <glyph glyph-name="q" unicode="q" horiz-adv-x="609" 
d="M477 490h73l-131 -683h-73l48 250q-69 -65 -159 -65q-93 0 -151.5 59.5t-58.5 152.5q0 120 80 207t196 87q98 0 162 -80zM296 461q-78 0 -137 -75t-59 -188q0 -76 39 -122.5t104 -46.5q88 0 140.5 76.5t52.5 199.5q0 72 -38.5 114t-101.5 42z" />
    <glyph glyph-name="r" unicode="r" horiz-adv-x="344" 
d="M344 439q-76 9 -129 -33.5t-66 -111.5l-56 -294h-73l93 490h74l-15 -76q33 40 75.5 63t107.5 21z" />
    <glyph glyph-name="s" unicode="s" horiz-adv-x="494" 
d="M423 384l-64 -14q-14 41 -42 66t-69 25q-45 0 -77.5 -24.5t-32.5 -62.5q0 -25 26 -45.5t63 -36.5t74 -33.5t63 -47t26 -68.5q0 -61 -60 -106t-144 -45q-78 0 -126 41t-58 93l66 15q6 -46 41 -78.5t85 -32.5q51 0 87.5 28t36.5 72q0 26 -26 47t-63 37.5t-74.5 34.5
t-63.5 46t-26 64q0 56 55 97.5t133 41.5q73 0 117 -33.5t53 -80.5z" />
    <glyph glyph-name="t" unicode="t" horiz-adv-x="334" 
d="M135 0h-74q-10 55 4 131l60 315l-103 -1l9 45l102 -1l31 161h74l-31 -161l143 1l-9 -45l-142 1l-60 -315q-14 -76 -4 -131z" />
    <glyph glyph-name="u" unicode="u" horiz-adv-x="593" 
d="M179 490l-49 -257q-6 -39 -6 -67q0 -54 30 -87.5t79 -33.5q68 0 112.5 46.5t59.5 125.5l52 273h73l-93 -490h-74l14 72q-70 -80 -168 -80q-71 0 -114 47t-43 120q0 52 14 120l40 211h73z" />
    <glyph glyph-name="v" unicode="v" horiz-adv-x="504" 
d="M499 490l-314 -507l-156 507h78l114 -379l220 379h58z" />
    <glyph glyph-name="w" unicode="w" horiz-adv-x="782" 
d="M787 490l-304 -507l-100 378l-227 -378l-134 507h78l92 -379l227 392l100 -392l210 379h58z" />
    <glyph glyph-name="x" unicode="x" horiz-adv-x="469" 
d="M385 0h-81l-107 201l-170 -201h-65l216 237l-136 253h80l106 -195l167 195h66l-216 -231z" />
    <glyph glyph-name="y" unicode="y" horiz-adv-x="517" 
d="M522 490l-467 -724l-61 37q11 9 29.5 27t66.5 74.5t84 115.5l-145 470h78l118 -393l241 393h56z" />
    <glyph glyph-name="z" unicode="z" horiz-adv-x="454" 
d="M359 0h-400l358 449l-266 -6l8 47h377l-360 -449l291 6z" />
    <glyph glyph-name="braceleft" unicode="{" horiz-adv-x="340" 
d="M197 -192q-12 -1 -33 -1q-75 0 -101 38t-11 119l34 179q9 46 -2 66.5t-52 27.5l9 47q44 8 62.5 28t26.5 66l36 178q13 71 51.5 99t115.5 28q12 0 23 -1l-10 -51q-61 -1 -79.5 -17.5t-30.5 -80.5l-31 -160q-9 -49 -29 -75t-59 -42q31 -19 41.5 -46t1.5 -73l-34 -178
q-12 -64 3 -82t78 -18z" />
    <glyph glyph-name="bar" unicode="|" horiz-adv-x="222" 
d="M145 -200h-68v1000h68v-1000z" />
    <glyph glyph-name="braceright" unicode="}" horiz-adv-x="340" 
d="M103 682q12 1 33 1q75 0 101 -38t11 -119l-30 -155q-9 -46 2 -66.5t52 -27.5l-9 -47q-44 -8 -62.5 -28t-26.5 -66l-40 -202q-13 -71 -51.5 -99t-115.5 -28q-16 0 -27 1l10 51q62 1 82 18t32 80l35 184q9 49 29 75t59 42q-31 19 -41.5 46t-1.5 73l30 154q12 64 -3 82
t-78 18z" />
    <glyph glyph-name="asciitilde" unicode="~" horiz-adv-x="600" 
d="M176 255q-26 0 -47 -18t-28.5 -32t-11.5 -26l-44 9q41 128 150 128q36 0 104 -32.5t105 -32.5q26 0 47 18t28.5 32t11.5 26l44 -9q-43 -134 -150 -134q-37 0 -105 35.5t-104 35.5z" />
    <glyph glyph-name="exclamdown" unicode="&#xa1;" horiz-adv-x="277" 
d="M108 296h46l-73 -489h-86zM162 498q18 0 30.5 -13.5t12.5 -30.5q0 -25 -15 -40t-38 -15q-18 0 -30.5 13.5t-12.5 30.5q0 25 15 40t38 15z" />
    <glyph glyph-name="cent" unicode="&#xa2;" 
d="M212 -18l20 105q-75 11 -122 66t-47 148q0 120 78 201t186 87l18 93h48l-18 -94q73 -10 132 -58l-40 -47q-45 53 -100 65l-80 -423q91 3 164 74l24 -27q-86 -83 -196 -88l-19 -102h-48zM138 300q0 -74 28 -116t74 -54l80 420q-73 -8 -127.5 -77t-54.5 -173z" />
    <glyph glyph-name="sterling" unicode="&#xa3;" 
d="M555 605l-51 -47l-8 10q-8 11 -12 15l-13.5 13.5t-17.5 14.5t-19 11t-24.5 8.5t-27.5 2.5q-70 0 -112.5 -51t-42.5 -124q0 -22 5 -45t10 -35l5 -12h205l-11 -56h-178q11 -40 6 -82q-12 -94 -99 -161l315 5l-13 -72h-438l13 65l73 1q66 56 76 140q5 51 -10 104h-116l11 56
h84q-15 38 -15 88q0 100 72.5 160t162.5 60q105 0 170 -69z" />
    <glyph glyph-name="currency" unicode="&#xa4;" 
d="M300 494q55 0 95 -29l89 89l36 -36l-89 -88q23 -35 23 -77q0 -69 -37 -117l89 -88l-36 -36l-90 89q-44 -29 -100 -29q-55 0 -94 28l-88 -88l-36 36l89 88q-23 34 -23 77q0 68 37 117l-89 88l36 36l89 -90q43 30 99 30zM298 435q-48 0 -78 -32.5t-30 -82.5q0 -37 26 -63
t67 -26q49 0 79 32.5t30 82.5q0 37 -26 63t-68 26z" />
    <glyph glyph-name="yen" unicode="&#xa5;" 
d="M75 343h153l-135 323h78l133 -318l237 318h69l-259 -323h153l-9 -49h-177l-16 -85h169l-10 -49h-169l-30 -160h-75l30 160h-169l10 49h169l16 85h-177z" />
    <glyph glyph-name="brokenbar" unicode="&#xa6;" horiz-adv-x="222" 
d="M145 433h-68v250h68v-250zM145 -67h-68v250h68v-250z" />
    <glyph glyph-name="section" unicode="&#xa7;" horiz-adv-x="545" 
d="M56 282q0 112 120 164q-38 48 -38 95q0 71 54 118.5t128 47.5q49 0 86 -16t56 -41t28.5 -48.5t10.5 -44.5l-66 -17q-3 45 -34.5 84t-83.5 39q-42 0 -73.5 -27.5t-31.5 -75.5q0 -33 25.5 -65.5t61.5 -61t72 -59t61.5 -70t25.5 -82.5q0 -108 -121 -162q39 -44 39 -95
q0 -72 -51.5 -119t-126.5 -47q-93 0 -135.5 45t-49.5 105l66 17q3 -50 34.5 -86.5t83.5 -36.5q41 0 73 27.5t32 75.5q0 33 -25.5 65.5t-61.5 61.5t-72 59t-61.5 69t-25.5 81zM308 90q78 41 78 117q0 37 -25.5 70t-82.5 78.5t-73 60.5q-32 -17 -54 -47t-22 -70q0 -29 19 -59
t41.5 -49.5t61 -51t57.5 -49.5z" />
    <glyph glyph-name="dieresis" unicode="&#xa8;" horiz-adv-x="272" 
d="M100 592q-18 0 -30.5 13.5t-12.5 30.5q0 25 15 40t38 15q18 0 30.5 -13.5t12.5 -30.5q0 -25 -15 -40t-38 -15zM274 592q-18 0 -30.5 13.5t-12.5 30.5q0 25 15 40t38 15q18 0 30.5 -13.5t12.5 -30.5q0 -25 -15 -40t-38 -15z" />
    <glyph glyph-name="copyright" unicode="&#xa9;" horiz-adv-x="804" 
d="M423 691q146 0 239 -90t93 -219q0 -166 -104.5 -278t-272.5 -112q-144 0 -236.5 91t-92.5 219q0 166 104 277.5t270 111.5zM424 645q-145 0 -234.5 -96.5t-89.5 -240.5q0 -113 78 -191.5t199 -78.5q146 0 236.5 96.5t90.5 241.5q0 113 -78 191t-202 78zM427 509
q-60 0 -107.5 -55.5t-47.5 -142.5q0 -69 31 -102t79 -33q74 0 136 59l23 -26q-75 -72 -167 -72q-72 0 -120 45.5t-48 129.5q0 101 67.5 167t158.5 66q76 0 135 -50l-36 -42q-49 56 -104 56z" />
    <glyph glyph-name="ordfeminine" unicode="&#xaa;" horiz-adv-x="414" 
d="M354 568q0 -29 -10 -71q-2 -10 -6.5 -30t-6.5 -30q-3 -17 -3 -36q0 -16 7 -38h-58q-4 12 -4 36q-43 -41 -98 -41q-45 0 -71 22t-26 63q0 103 220 128q4 31 -12 50t-44 19q-45 0 -92 -52l-34 38q58 48 126 48q57 0 84.5 -30t27.5 -76zM281 470q10 36 13 67
q-156 -20 -156 -94q0 -45 51 -45q28 0 54.5 21.5t37.5 50.5zM327 263h-276l9 44h276z" />
    <glyph glyph-name="guillemotleft" unicode="&#xab;" 
d="M258 75l-25 -21l-198 202l261 202l21 -25l-179 -181zM474 75l-25 -21l-198 202l261 202l21 -25l-179 -181z" />
    <glyph glyph-name="logicalnot" unicode="&#xac;" horiz-adv-x="600" 
d="M511 118h-71l37 202h-422l12 68h492z" />
    <glyph glyph-name="registered" unicode="&#xae;" horiz-adv-x="596" 
d="M337 733q91 0 149 -56t58 -136q0 -103 -65 -172.5t-170 -69.5q-90 0 -147.5 56t-57.5 136q0 103 64.5 172.5t168.5 69.5zM337 699q-86 0 -140.5 -58.5t-54.5 -145.5q0 -67 47 -114.5t120 -47.5q88 0 142.5 58.5t54.5 145.5q0 68 -47.5 115t-121.5 47zM367 389l-91 122
l-23 -122h-40l48 251h77q87 0 87 -69q0 -31 -23 -52.5t-64 -25.5l79 -104h-50zM296 613l-19 -98h37q28 0 50 14t22 42q0 42 -57 42h-33z" />
    <glyph glyph-name="macron" unicode="&#xaf;" horiz-adv-x="272" 
d="M316 609h-260l11 54h260z" />
    <glyph glyph-name="macron" unicode="&#x2c9;" horiz-adv-x="272" 
d="M316 609h-260l11 54h260z" />
    <glyph glyph-name="degree" unicode="&#xb0;" horiz-adv-x="414" 
d="M253 704q56 0 92 -37.5t36 -90.5q0 -68 -48.5 -115t-120.5 -47q-55 0 -91 37.5t-36 90.5q0 68 48.5 115t119.5 47zM220 454q38 0 67 36t29 92q0 37 -19.5 59.5t-50.5 22.5q-39 0 -68 -36t-29 -92q0 -37 19.5 -59.5t51.5 -22.5z" />
    <glyph glyph-name="plusminus" unicode="&#xb1;" horiz-adv-x="600" 
d="M539 295h-212l-37 -191h-68l37 191h-212l13 68h212l36 191h68l-36 -191h212zM483 0h-492l13 68h492z" />
    <glyph glyph-name="twosuperior" unicode="&#xb2;" horiz-adv-x="386" 
d="M320 272h-297q178 139 231.5 196t53.5 109q0 28 -16.5 45t-42.5 17q-54 0 -95 -75l-44 28q56 82 139 82q50 0 84.5 -27.5t34.5 -71.5q0 -56 -45 -106.5t-183 -145.5l190 2z" />
    <glyph glyph-name="threesuperior" unicode="&#xb3;" horiz-adv-x="386" 
d="M175 266q-87 0 -129 50l47 38q27 -52 82 -52q43 0 70 28t27 73q0 58 -90 58q-23 0 -48 -4l9 49q1 0 12 -0.5t21 -0.5q58 0 85.5 22.5t27.5 57.5q0 24 -17.5 38.5t-39.5 14.5q-50 0 -85 -51l-44 28q59 59 129 59q49 0 83 -27t34 -67q0 -29 -17.5 -55t-47.5 -39
q50 -23 50 -83q0 -59 -44.5 -98t-114.5 -39z" />
    <glyph glyph-name="acute" unicode="&#xb4;" horiz-adv-x="272" 
d="M326 733l-162 -167h-40l143 206z" />
    <glyph glyph-name="mu" unicode="&#xb5;" horiz-adv-x="596" 
d="M187 490l-50 -260q-5 -42 -5 -64q0 -54 30 -87.5t79 -33.5q68 0 112.5 46.5t59.5 125.5l52 273h73l-93 -490h-74l14 72q-70 -80 -168 -80q-73 0 -116 49l-45 -234h-73l131 683h73z" />
    <glyph glyph-name="mu" unicode="&#x3bc;" horiz-adv-x="596" 
d="M187 490l-50 -260q-5 -42 -5 -64q0 -54 30 -87.5t79 -33.5q68 0 112.5 46.5t59.5 125.5l52 273h73l-93 -490h-74l14 72q-70 -80 -168 -80q-73 0 -116 49l-45 -234h-73l131 683h73z" />
    <glyph glyph-name="paragraph" unicode="&#xb6;" 
d="M195 -134l75 391q-87 17 -144.5 70.5t-57.5 134.5q0 52 18.5 92t47.5 64t68 39t75 20.5t74 5.5h277l-9 -49l-78 1l-156 -816h-49l156 817l-81 1l-156 -818h-171l9 49zM277 302l65 334q-28 0 -56.5 -8.5t-57.5 -26.5t-47.5 -55t-18.5 -86q0 -63 32.5 -103.5t82.5 -54.5z
" />
    <glyph glyph-name="periodcentered" unicode="&#xb7;" horiz-adv-x="277" 
d="M117 207q-18 0 -30.5 13.5t-12.5 30.5q0 25 15 40t38 15q18 0 30.5 -13.5t12.5 -30.5q0 -25 -15 -40t-38 -15z" />
    <glyph glyph-name="periodcentered" unicode="&#x2219;" horiz-adv-x="277" 
d="M117 207q-18 0 -30.5 13.5t-12.5 30.5q0 25 15 40t38 15q18 0 30.5 -13.5t12.5 -30.5q0 -25 -15 -40t-38 -15z" />
    <glyph glyph-name="cedilla" unicode="&#xb8;" horiz-adv-x="272" 
d="M246 -138q0 -36 -36.5 -62t-109.5 -26l-71 6l20 42q29 -12 58 -12t49.5 13t20.5 37t-26 36t-67 3l47 109h32l-28 -66q44 0 77.5 -19t33.5 -61z" />
    <glyph glyph-name="onesuperior" unicode="&#xb9;" horiz-adv-x="336" 
d="M182 272h-59l69 351l-92 -46l-14 47l176 64z" />
    <glyph glyph-name="ordmasculine" unicode="&#xba;" horiz-adv-x="414" 
d="M252 674q58 0 95 -37t37 -95q0 -76 -50.5 -130t-124.5 -54q-58 0 -94.5 37t-36.5 95q0 76 50.5 130t123.5 54zM215 392q45 0 79.5 43t34.5 108q0 44 -23 70.5t-60 26.5q-45 0 -79 -43t-34 -108q0 -44 22.5 -70.5t59.5 -26.5zM329 263h-292l9 44h292z" />
    <glyph glyph-name="guillemotright" unicode="&#xbb;" 
d="M294 437l25 21l198 -202l-261 -202l-21 25l179 181zM78 437l25 21l198 -202l-261 -202l-21 25l179 181z" />
    <glyph glyph-name="onequarter" unicode="&#xbc;" horiz-adv-x="763" 
d="M695 109h-65l-19 -109h-59l20 110h-226l338 312l-45 -262h65zM581 160l22 140l-152 -140h130zM612 674l-440 -682h-47l440 682h47zM182 272h-59l69 351l-92 -46l-14 47l176 64z" />
    <glyph glyph-name="onehalf" unicode="&#xbd;" horiz-adv-x="774" 
d="M674 0h-297q178 139 231.5 196t53.5 109q0 28 -16.5 45t-42.5 17q-54 0 -95 -75l-44 28q56 82 139 82q50 0 84.5 -27.5t34.5 -71.5q0 -56 -45 -106.5t-183 -145.5l190 2zM612 674l-440 -682h-47l440 682h47zM182 272h-59l69 351l-92 -46l-14 47l176 64z" />
    <glyph glyph-name="threequarters" unicode="&#xbe;" horiz-adv-x="774" 
d="M175 266q-87 0 -129 50l47 38q27 -52 82 -52q43 0 70 28t27 73q0 58 -90 58q-23 0 -48 -4l9 49q1 0 12 -0.5t21 -0.5q58 0 85.5 22.5t27.5 57.5q0 24 -17.5 38.5t-39.5 14.5q-50 0 -85 -51l-44 28q59 59 129 59q49 0 83 -27t34 -67q0 -29 -17.5 -55t-47.5 -39
q50 -23 50 -83q0 -59 -44.5 -98t-114.5 -39zM650 674l-440 -682h-47l440 682h47zM695 109h-65l-19 -109h-59l20 110h-226l338 312l-45 -262h65zM581 160l22 140l-152 -140h130z" />
    <glyph glyph-name="questiondown" unicode="&#xbf;" horiz-adv-x="464" 
d="M270 498q18 0 30.5 -13.5t12.5 -30.5q0 -25 -15 -40t-38 -15q-18 0 -30.5 13.5t-12.5 30.5q0 25 15 40t38 15zM-19 -70q0 44 18 80t45 58.5t59 47.5t59.5 47t47 56.5t21.5 76.5h46q-3 -64 -26.5 -111t-55 -74t-62.5 -51t-52.5 -56t-21.5 -75q0 -46 27.5 -71.5t64.5 -25.5
q79 0 140 90l52 -37q-30 -41 -78.5 -68t-111.5 -27q-71 0 -121.5 38t-50.5 102z" />
    <glyph glyph-name="Agrave" unicode="&#xc0;" horiz-adv-x="656" 
d="M594 0h-79l-73 242h-294l-145 -242h-58l434 700zM430 285l-86 284l-170 -284h256zM433 739h-40l-148 167l62 39z" />
    <glyph glyph-name="Aacute" unicode="&#xc1;" horiz-adv-x="656" 
d="M594 0h-79l-73 242h-294l-145 -242h-58l434 700zM430 285l-86 284l-170 -284h256zM518 906l-162 -167h-40l143 206z" />
    <glyph glyph-name="Acircumflex" unicode="&#xc2;" horiz-adv-x="656" 
d="M594 0h-79l-73 242h-294l-145 -242h-58l434 700zM430 285l-86 284l-170 -284h256zM505 739h-38l-70 98l-102 -98h-41l158 206z" />
    <glyph glyph-name="Atilde" unicode="&#xc3;" horiz-adv-x="656" 
d="M594 0h-79l-73 242h-294l-145 -242h-58l434 700zM430 285l-86 284l-170 -284h256zM317 797q-24 0 -37.5 -14t-16.5 -28l-30 9q11 37 37.5 64.5t68.5 27.5q24 0 65.5 -18.5t68.5 -18.5q24 0 37.5 14t16.5 28l30 -9q-11 -37 -37.5 -64.5t-68.5 -27.5q-25 0 -66.5 18.5
t-67.5 18.5z" />
    <glyph glyph-name="Adieresis" unicode="&#xc4;" horiz-adv-x="656" 
d="M594 0h-79l-73 242h-294l-145 -242h-58l434 700zM430 285l-86 284l-170 -284h256zM298 765q-18 0 -30.5 13.5t-12.5 30.5q0 25 15 40t38 15q18 0 30.5 -13.5t12.5 -30.5q0 -25 -15 -40t-38 -15zM472 765q-18 0 -30.5 13.5t-12.5 30.5q0 25 15 40t38 15q18 0 30.5 -13.5
t12.5 -30.5q0 -25 -15 -40t-38 -15z" />
    <glyph glyph-name="Aring" unicode="&#xc5;" horiz-adv-x="656" 
d="M594 0h-79l-73 242h-294l-145 -242h-58l434 700zM430 285l-86 284l-170 -284h256zM412 971q45 0 74 -30t29 -73q0 -54 -39 -91.5t-97 -37.5q-44 0 -73 30t-29 73q0 54 39 91.5t96 37.5zM385 771q30 0 53 29t23 73q0 29 -14.5 47.5t-39.5 18.5q-31 0 -54 -29t-23 -73
q0 -30 15 -48t40 -18z" />
    <glyph glyph-name="AE" unicode="&#xc6;" horiz-adv-x="884" 
d="M344 0l53 279h-220l-222 -279h-64l557 683h415l-10 -49l-311 6l-53 -273l309 2l-9 -47l-308 2l-54 -281l331 6l-10 -49h-404zM406 323l60 317l-253 -317h193z" />
    <glyph glyph-name="Ccedilla" unicode="&#xc7;" horiz-adv-x="680" 
d="M417 650q-109 0 -197 -101t-88 -259q0 -128 62 -191.5t154 -63.5q122 0 231 102l25 -28q-125 -117 -271 -117h-3l-21 -50q44 0 77.5 -19t33.5 -61q0 -36 -36.5 -62t-109.5 -26l-71 6l20 42q29 -12 58 -12t49.5 13t20.5 37t-26 36t-67 3l41 95q-107 11 -177 88t-70 209
q0 172 112.5 286t262.5 114q125 0 221 -78l-46 -56q-81 93 -185 93z" />
    <glyph glyph-name="Egrave" unicode="&#xc8;" horiz-adv-x="580" 
d="M444 0h-410l131 683h394l-10 -49l-317 6l-53 -273l315 2l-9 -47l-314 2l-54 -281l337 6zM419 739h-40l-148 167l62 39z" />
    <glyph glyph-name="Eacute" unicode="&#xc9;" horiz-adv-x="580" 
d="M444 0h-410l131 683h394l-10 -49l-317 6l-53 -273l315 2l-9 -47l-314 2l-54 -281l337 6zM500 906l-162 -167h-40l143 206z" />
    <glyph glyph-name="Ecircumflex" unicode="&#xca;" horiz-adv-x="580" 
d="M444 0h-410l131 683h394l-10 -49l-317 6l-53 -273l315 2l-9 -47l-314 2l-54 -281l337 6zM491 739h-38l-70 98l-102 -98h-41l158 206z" />
    <glyph glyph-name="Edieresis" unicode="&#xcb;" horiz-adv-x="580" 
d="M444 0h-410l131 683h394l-10 -49l-317 6l-53 -273l315 2l-9 -47l-314 2l-54 -281l337 6zM284 765q-18 0 -30.5 13.5t-12.5 30.5q0 25 15 40t38 15q18 0 30.5 -13.5t12.5 -30.5q0 -25 -15 -40t-38 -15zM458 765q-18 0 -30.5 13.5t-12.5 30.5q0 25 15 40t38 15
q18 0 30.5 -13.5t12.5 -30.5q0 -25 -15 -40t-38 -15z" />
    <glyph glyph-name="Igrave" unicode="&#xcc;" horiz-adv-x="298" 
d="M121 0h-75l131 683h75zM279 739h-40l-148 167l62 39z" />
    <glyph glyph-name="Iacute" unicode="&#xcd;" horiz-adv-x="298" 
d="M121 0h-75l131 683h75zM364 906l-162 -167h-40l143 206z" />
    <glyph glyph-name="Icircumflex" unicode="&#xce;" horiz-adv-x="298" 
d="M121 0h-75l131 683h75zM347 739h-38l-70 98l-102 -98h-41l158 206z" />
    <glyph glyph-name="Idieresis" unicode="&#xcf;" horiz-adv-x="298" 
d="M121 0h-75l131 683h75zM144 765q-18 0 -30.5 13.5t-12.5 30.5q0 25 15 40t38 15q18 0 30.5 -13.5t12.5 -30.5q0 -25 -15 -40t-38 -15zM318 765q-18 0 -30.5 13.5t-12.5 30.5q0 25 15 40t38 15q18 0 30.5 -13.5t12.5 -30.5q0 -25 -15 -40t-38 -15z" />
    <glyph glyph-name="Eth" unicode="&#xd0;" horiz-adv-x="716" 
d="M188 0h-154l62 327h-98l8 49h100l59 307h172q159 0 234 -60q93 -75 93 -221q0 -47 -10.5 -97.5t-49 -118.5t-101.5 -114q-35 -26 -77 -42t-90.5 -21.5t-75.5 -7t-72 -1.5zM117 43h75q88 0 148 14t108 50q69 52 102.5 130t33.5 160q0 50 -12 90t-28.5 65t-44 42.5
t-49.5 26.5t-53.5 13.5t-47.5 5t-40 0.5h-77l-51 -264h180l-9 -49h-181z" />
    <glyph glyph-name="Ntilde" unicode="&#xd1;" horiz-adv-x="727" 
d="M558 -17l-376 565l-97 -548h-51l134 700l376 -565l97 548h51zM368 797q-24 0 -37.5 -14t-16.5 -28l-30 9q11 37 37.5 64.5t68.5 27.5q24 0 65.5 -18.5t68.5 -18.5q24 0 37.5 14t16.5 28l30 -9q-11 -37 -37.5 -64.5t-68.5 -27.5q-25 0 -66.5 18.5t-67.5 18.5z" />
    <glyph glyph-name="Ograve" unicode="&#xd2;" horiz-adv-x="779" 
d="M430 691q128 0 211 -82.5t85 -209.5q0 -168 -107.5 -287.5t-270.5 -119.5q-129 0 -211.5 82.5t-84.5 210.5q0 168 107 287t271 119zM355 31q116 0 203 105.5t87 264.5q0 112 -60 181.5t-162 69.5q-116 0 -203.5 -105t-87.5 -264q0 -113 60 -182.5t163 -69.5zM509 739h-40
l-148 167l62 39z" />
    <glyph glyph-name="Oacute" unicode="&#xd3;" horiz-adv-x="779" 
d="M430 691q128 0 211 -82.5t85 -209.5q0 -168 -107.5 -287.5t-270.5 -119.5q-129 0 -211.5 82.5t-84.5 210.5q0 168 107 287t271 119zM355 31q116 0 203 105.5t87 264.5q0 112 -60 181.5t-162 69.5q-116 0 -203.5 -105t-87.5 -264q0 -113 60 -182.5t163 -69.5zM604 906
l-162 -167h-40l143 206z" />
    <glyph glyph-name="Ocircumflex" unicode="&#xd4;" horiz-adv-x="779" 
d="M430 691q128 0 211 -82.5t85 -209.5q0 -168 -107.5 -287.5t-270.5 -119.5q-129 0 -211.5 82.5t-84.5 210.5q0 168 107 287t271 119zM355 31q116 0 203 105.5t87 264.5q0 112 -60 181.5t-162 69.5q-116 0 -203.5 -105t-87.5 -264q0 -113 60 -182.5t163 -69.5zM579 739h-38
l-70 98l-102 -98h-41l158 206z" />
    <glyph glyph-name="Otilde" unicode="&#xd5;" horiz-adv-x="779" 
d="M430 691q128 0 211 -82.5t85 -209.5q0 -168 -107.5 -287.5t-270.5 -119.5q-129 0 -211.5 82.5t-84.5 210.5q0 168 107 287t271 119zM355 31q116 0 203 105.5t87 264.5q0 112 -60 181.5t-162 69.5q-116 0 -203.5 -105t-87.5 -264q0 -113 60 -182.5t163 -69.5zM391 797
q-24 0 -37.5 -14t-16.5 -28l-30 9q11 37 37.5 64.5t68.5 27.5q24 0 65.5 -18.5t68.5 -18.5q24 0 37.5 14t16.5 28l30 -9q-11 -37 -37.5 -64.5t-68.5 -27.5q-25 0 -66.5 18.5t-67.5 18.5z" />
    <glyph glyph-name="Odieresis" unicode="&#xd6;" horiz-adv-x="779" 
d="M430 691q128 0 211 -82.5t85 -209.5q0 -168 -107.5 -287.5t-270.5 -119.5q-129 0 -211.5 82.5t-84.5 210.5q0 168 107 287t271 119zM355 31q116 0 203 105.5t87 264.5q0 112 -60 181.5t-162 69.5q-116 0 -203.5 -105t-87.5 -264q0 -113 60 -182.5t163 -69.5zM378 765
q-18 0 -30.5 13.5t-12.5 30.5q0 25 15 40t38 15q18 0 30.5 -13.5t12.5 -30.5q0 -25 -15 -40t-38 -15zM552 765q-18 0 -30.5 13.5t-12.5 30.5q0 25 15 40t38 15q18 0 30.5 -13.5t12.5 -30.5q0 -25 -15 -40t-38 -15z" />
    <glyph glyph-name="multiply" unicode="&#xd7;" horiz-adv-x="600" 
d="M491 69l-48 -43l-156 182l-207 -182l-42 48l208 182l-156 180l48 44l156 -180l205 179l42 -48l-205 -180z" />
    <glyph glyph-name="Oslash" unicode="&#xd8;" horiz-adv-x="779" 
d="M430 691q104 0 179 -56l71 82h66l-99 -115q76 -81 79 -203q0 -168 -107.5 -287.5t-270.5 -119.5q-105 0 -180 56l-78 -90h-66l106 123q-77 81 -78 204q0 168 107 287t271 119zM355 31q116 0 203 105.5t87 264.5q0 89 -40 154l-402 -466q58 -58 152 -58zM132 283
q0 -89 39 -155l403 466q-60 58 -151 58q-116 0 -203.5 -105t-87.5 -264z" />
    <glyph glyph-name="Ugrave" unicode="&#xd9;" horiz-adv-x="721" 
d="M688 683l-65 -343q-9 -50 -16.5 -81t-20 -72t-27 -66t-37.5 -52t-51.5 -42t-68 -24.5t-88.5 -9.5q-111 0 -174.5 55t-63.5 152q0 44 15 130l68 353h75l-80 -413q-6 -28 -6 -70q0 -79 45 -122t126 -43q101 0 148 66t77 223l68 359h76zM490 739h-40l-148 167l62 39z" />
    <glyph glyph-name="Uacute" unicode="&#xda;" horiz-adv-x="721" 
d="M688 683l-65 -343q-9 -50 -16.5 -81t-20 -72t-27 -66t-37.5 -52t-51.5 -42t-68 -24.5t-88.5 -9.5q-111 0 -174.5 55t-63.5 152q0 44 15 130l68 353h75l-80 -413q-6 -28 -6 -70q0 -79 45 -122t126 -43q101 0 148 66t77 223l68 359h76zM585 906l-162 -167h-40l143 206z" />
    <glyph glyph-name="Ucircumflex" unicode="&#xdb;" horiz-adv-x="721" 
d="M688 683l-65 -343q-9 -50 -16.5 -81t-20 -72t-27 -66t-37.5 -52t-51.5 -42t-68 -24.5t-88.5 -9.5q-111 0 -174.5 55t-63.5 152q0 44 15 130l68 353h75l-80 -413q-6 -28 -6 -70q0 -79 45 -122t126 -43q101 0 148 66t77 223l68 359h76zM550 739h-38l-70 98l-102 -98h-41
l158 206z" />
    <glyph glyph-name="Udieresis" unicode="&#xdc;" horiz-adv-x="721" 
d="M688 683l-65 -343q-9 -50 -16.5 -81t-20 -72t-27 -66t-37.5 -52t-51.5 -42t-68 -24.5t-88.5 -9.5q-111 0 -174.5 55t-63.5 152q0 44 15 130l68 353h75l-80 -413q-6 -28 -6 -70q0 -79 45 -122t126 -43q101 0 148 66t77 223l68 359h76zM345 765q-18 0 -30.5 13.5
t-12.5 30.5q0 25 15 40t38 15q18 0 30.5 -13.5t12.5 -30.5q0 -25 -15 -40t-38 -15zM519 765q-18 0 -30.5 13.5t-12.5 30.5q0 25 15 40t38 15q18 0 30.5 -13.5t12.5 -30.5q0 -25 -15 -40t-38 -15z" />
    <glyph glyph-name="Yacute" unicode="&#xdd;" horiz-adv-x="570" 
d="M635 683l-315 -379l-58 -304h-75l58 304l-197 379h86l172 -331l260 331h69zM511 906l-162 -167h-40l143 206z" />
    <glyph glyph-name="Thorn" unicode="&#xde;" horiz-adv-x="600" 
d="M237 683l-26 -141h108q108 0 169 -44.5t61 -135.5q0 -100 -66 -156.5t-190 -56.5h-154l-27 -149h-75l125 683h75zM472 361q0 77 -47.5 107.5t-131.5 30.5h-90l-56 -308h125q97 0 148.5 44.5t51.5 125.5z" />
    <glyph glyph-name="germandbls" unicode="&#xdf;" horiz-adv-x="558" 
d="M267 377q0 -21 24.5 -39.5t59.5 -35.5t70 -37t59.5 -52t24.5 -72q0 -66 -44.5 -107.5t-124.5 -41.5q-76 0 -121 37.5t-56 93.5l59 15q7 -50 37.5 -79.5t80.5 -29.5q44 0 70.5 28t26.5 70q0 36 -36.5 65t-79.5 46.5t-79.5 46.5t-36.5 65q0 26 21 48t50.5 40t59.5 38t51 51
t21 70q0 42 -24 58.5t-53 16.5q-107 0 -141 -183l-93 -489h-73l85 445h-86l8 45l86 -1q22 116 82 167.5t139 51.5q53 0 97.5 -26t44.5 -85q0 -42 -21.5 -74t-52 -50.5t-61.5 -33t-52.5 -29.5t-21.5 -33z" />
    <glyph glyph-name="agrave" unicode="&#xe0;" horiz-adv-x="535" 
d="M461 331q0 -42 -16 -117l-20 -99q-14 -70 1 -115h-74q-11 32 -1 80q-31 -37 -77.5 -62.5t-99.5 -25.5q-70 0 -110.5 34.5t-40.5 97.5q0 164 365 202q9 60 -20 97.5t-83 37.5q-79 0 -153 -84l-42 51q93 70 195 70q90 0 133 -47t43 -120zM385 291q-283 -36 -283 -167
q0 -45 27.5 -65t67.5 -20q52 0 98.5 37t64.5 89q12 43 25 126zM380 566h-40l-148 167l62 39z" />
    <glyph glyph-name="aacute" unicode="&#xe1;" horiz-adv-x="535" 
d="M461 331q0 -42 -16 -117l-20 -99q-14 -70 1 -115h-74q-11 32 -1 80q-31 -37 -77.5 -62.5t-99.5 -25.5q-70 0 -110.5 34.5t-40.5 97.5q0 164 365 202q9 60 -20 97.5t-83 37.5q-79 0 -153 -84l-42 51q93 70 195 70q90 0 133 -47t43 -120zM385 291q-283 -36 -283 -167
q0 -45 27.5 -65t67.5 -20q52 0 98.5 37t64.5 89q12 43 25 126zM455 733l-162 -167h-40l143 206z" />
    <glyph glyph-name="acircumflex" unicode="&#xe2;" horiz-adv-x="535" 
d="M461 331q0 -42 -16 -117l-20 -99q-14 -70 1 -115h-74q-11 32 -1 80q-31 -37 -77.5 -62.5t-99.5 -25.5q-70 0 -110.5 34.5t-40.5 97.5q0 164 365 202q9 60 -20 97.5t-83 37.5q-79 0 -153 -84l-42 51q93 70 195 70q90 0 133 -47t43 -120zM385 291q-283 -36 -283 -167
q0 -45 27.5 -65t67.5 -20q52 0 98.5 37t64.5 89q12 43 25 126zM430 566h-38l-70 98l-102 -98h-41l158 206z" />
    <glyph glyph-name="atilde" unicode="&#xe3;" horiz-adv-x="535" 
d="M461 331q0 -42 -16 -117l-20 -99q-14 -70 1 -115h-74q-11 32 -1 80q-31 -37 -77.5 -62.5t-99.5 -25.5q-70 0 -110.5 34.5t-40.5 97.5q0 164 365 202q9 60 -20 97.5t-83 37.5q-79 0 -153 -84l-42 51q93 70 195 70q90 0 133 -47t43 -120zM385 291q-283 -36 -283 -167
q0 -45 27.5 -65t67.5 -20q52 0 98.5 37t64.5 89q12 43 25 126zM244 624q-24 0 -37.5 -14t-16.5 -28l-30 9q11 37 37.5 64.5t68.5 27.5q24 0 65.5 -18.5t68.5 -18.5q24 0 37.5 14t16.5 28l30 -9q-11 -37 -37.5 -64.5t-68.5 -27.5q-25 0 -66.5 18.5t-67.5 18.5z" />
    <glyph glyph-name="adieresis" unicode="&#xe4;" horiz-adv-x="535" 
d="M461 331q0 -42 -16 -117l-20 -99q-14 -70 1 -115h-74q-11 32 -1 80q-31 -37 -77.5 -62.5t-99.5 -25.5q-70 0 -110.5 34.5t-40.5 97.5q0 164 365 202q9 60 -20 97.5t-83 37.5q-79 0 -153 -84l-42 51q93 70 195 70q90 0 133 -47t43 -120zM385 291q-283 -36 -283 -167
q0 -45 27.5 -65t67.5 -20q52 0 98.5 37t64.5 89q12 43 25 126zM229 592q-18 0 -30.5 13.5t-12.5 30.5q0 25 15 40t38 15q18 0 30.5 -13.5t12.5 -30.5q0 -25 -15 -40t-38 -15zM403 592q-18 0 -30.5 13.5t-12.5 30.5q0 25 15 40t38 15q18 0 30.5 -13.5t12.5 -30.5
q0 -25 -15 -40t-38 -15z" />
    <glyph glyph-name="aring" unicode="&#xe5;" horiz-adv-x="535" 
d="M461 331q0 -42 -16 -117l-20 -99q-14 -70 1 -115h-74q-11 32 -1 80q-31 -37 -77.5 -62.5t-99.5 -25.5q-70 0 -110.5 34.5t-40.5 97.5q0 164 365 202q9 60 -20 97.5t-83 37.5q-79 0 -153 -84l-42 51q93 70 195 70q90 0 133 -47t43 -120zM385 291q-283 -36 -283 -167
q0 -45 27.5 -65t67.5 -20q52 0 98.5 37t64.5 89q12 43 25 126zM337 798q45 0 74 -30t29 -73q0 -54 -39 -91.5t-97 -37.5q-44 0 -73 30t-29 73q0 54 39 91.5t96 37.5zM310 598q30 0 53 29t23 73q0 29 -14.5 47.5t-39.5 18.5q-31 0 -54 -29t-23 -73q0 -30 15 -48t40 -18z" />
    <glyph glyph-name="ae" unicode="&#xe6;" horiz-adv-x="883" 
d="M264 498q126 0 162 -92q85 92 196 92q93 0 146.5 -55t53.5 -145q0 -8 -3 -44h-390q-3 -18 -3 -46q0 -89 40 -132t102 -43q44 0 90.5 20.5t80.5 53.5l24 -27q-91 -88 -206 -88q-66 0 -116.5 32.5t-73.5 93.5q-95 -126 -214 -126q-69 0 -110 36t-41 96q0 168 362 168
q17 82 -12.5 125.5t-87.5 43.5q-79 0 -153 -84l-42 51q93 70 195 70zM358 254q-67 0 -117.5 -7.5t-80 -19.5t-48 -29.5t-25 -35t-6.5 -38.5q0 -45 27.5 -65t67.5 -20q52 0 98.5 37t64.5 89q4 14 19 89zM437 292h308q1 7 1 20q0 69 -34.5 109.5t-92.5 40.5q-60 0 -113 -45
t-69 -125z" />
    <glyph glyph-name="ccedilla" unicode="&#xe7;" horiz-adv-x="521" 
d="M321 -138q0 -36 -36.5 -62t-109.5 -26l-71 6l20 42q29 -12 58 -12t49.5 13t20.5 37t-26 36t-67 3l41 95q-77 10 -126 65.5t-49 149.5q0 124 84 206.5t196 82.5q92 0 164 -60l-40 -47q-58 68 -131 68q-76 0 -137 -70t-61 -181q0 -89 40 -132t102 -43q44 0 90.5 20.5
t80.5 53.5l24 -27q-91 -88 -206 -88l-21 -50q44 0 77.5 -19t33.5 -61z" />
    <glyph glyph-name="egrave" unicode="&#xe8;" horiz-adv-x="562" 
d="M111 292h308q1 7 1 20q0 69 -34.5 109.5t-92.5 40.5q-60 0 -113 -45t-69 -125zM25 209q0 123 83 206t188 83q93 0 146.5 -55t53.5 -145q0 -8 -3 -44h-390q-3 -18 -3 -46q0 -89 40 -132t102 -43q44 0 90.5 20.5t80.5 53.5l24 -27q-91 -88 -206 -88q-88 0 -147 56.5
t-59 160.5zM402 566h-40l-148 167l62 39z" />
    <glyph glyph-name="eacute" unicode="&#xe9;" horiz-adv-x="562" 
d="M111 292h308q1 7 1 20q0 69 -34.5 109.5t-92.5 40.5q-60 0 -113 -45t-69 -125zM25 209q0 123 83 206t188 83q93 0 146.5 -55t53.5 -145q0 -8 -3 -44h-390q-3 -18 -3 -46q0 -89 40 -132t102 -43q44 0 90.5 20.5t80.5 53.5l24 -27q-91 -88 -206 -88q-88 0 -147 56.5
t-59 160.5zM487 733l-162 -167h-40l143 206z" />
    <glyph glyph-name="ecircumflex" unicode="&#xea;" horiz-adv-x="562" 
d="M111 292h308q1 7 1 20q0 69 -34.5 109.5t-92.5 40.5q-60 0 -113 -45t-69 -125zM25 209q0 123 83 206t188 83q93 0 146.5 -55t53.5 -145q0 -8 -3 -44h-390q-3 -18 -3 -46q0 -89 40 -132t102 -43q44 0 90.5 20.5t80.5 53.5l24 -27q-91 -88 -206 -88q-88 0 -147 56.5
t-59 160.5zM452 566h-38l-70 98l-102 -98h-41l158 206z" />
    <glyph glyph-name="edieresis" unicode="&#xeb;" horiz-adv-x="562" 
d="M111 292h308q1 7 1 20q0 69 -34.5 109.5t-92.5 40.5q-60 0 -113 -45t-69 -125zM25 209q0 123 83 206t188 83q93 0 146.5 -55t53.5 -145q0 -8 -3 -44h-390q-3 -18 -3 -46q0 -89 40 -132t102 -43q44 0 90.5 20.5t80.5 53.5l24 -27q-91 -88 -206 -88q-88 0 -147 56.5
t-59 160.5zM251 592q-18 0 -30.5 13.5t-12.5 30.5q0 25 15 40t38 15q18 0 30.5 -13.5t12.5 -30.5q0 -25 -15 -40t-38 -15zM425 592q-18 0 -30.5 13.5t-12.5 30.5q0 25 15 40t38 15q18 0 30.5 -13.5t12.5 -30.5q0 -25 -15 -40t-38 -15z" />
    <glyph glyph-name="igrave" unicode="&#xec;" horiz-adv-x="269" 
d="M103 0h-74l93 490h74zM240 566h-40l-148 167l62 39z" />
    <glyph glyph-name="iacute" unicode="&#xed;" horiz-adv-x="269" 
d="M103 0h-74l93 490h74zM325 733l-162 -167h-40l143 206z" />
    <glyph glyph-name="icircumflex" unicode="&#xee;" horiz-adv-x="269" 
d="M103 0h-74l93 490h74zM300 566h-38l-70 98l-102 -98h-41l158 206z" />
    <glyph glyph-name="idieresis" unicode="&#xef;" horiz-adv-x="269" 
d="M103 0h-74l93 490h74zM97 592q-18 0 -30.5 13.5t-12.5 30.5q0 25 15 40t38 15q18 0 30.5 -13.5t12.5 -30.5q0 -25 -15 -40t-38 -15zM271 592q-18 0 -30.5 13.5t-12.5 30.5q0 25 15 40t38 15q18 0 30.5 -13.5t12.5 -30.5q0 -25 -15 -40t-38 -15z" />
    <glyph glyph-name="eth" unicode="&#xf0;" horiz-adv-x="550" 
d="M226 29q69 0 121 68t52 169q0 68 -34 109.5t-92 41.5q-69 0 -121 -68t-52 -169q0 -68 34 -109.5t92 -41.5zM474 260q0 -110 -74 -189t-182 -79q-85 0 -139 54.5t-54 139.5q0 110 74 189t182 79q42 0 71 -12q-31 61 -99 123l-150 -66l-20 43l132 57q-29 25 -63 47l64 42
q46 -35 71 -58l141 62l20 -43l-126 -54q152 -156 152 -335z" />
    <glyph glyph-name="ntilde" unicode="&#xf1;" horiz-adv-x="593" 
d="M371 0l49 257q6 39 6 67q0 54 -30 87.5t-79 33.5q-68 0 -112.5 -46.5t-59.5 -125.5l-52 -273h-73l93 490h74l-14 -72q70 80 168 80q71 0 114 -47t43 -120q0 -52 -14 -120l-40 -211h-73zM269 624q-24 0 -37.5 -14t-16.5 -28l-30 9q11 37 37.5 64.5t68.5 27.5
q24 0 65.5 -18.5t68.5 -18.5q24 0 37.5 14t16.5 28l30 -9q-11 -37 -37.5 -64.5t-68.5 -27.5q-25 0 -66.5 18.5t-67.5 18.5z" />
    <glyph glyph-name="ograve" unicode="&#xf2;" horiz-adv-x="580" 
d="M299 498q94 0 154 -60t60 -152q0 -122 -77.5 -208t-196.5 -86q-93 0 -152.5 59.5t-61.5 152.5q0 122 77.5 208t196.5 86zM246 29q77 0 134.5 73.5t57.5 184.5q0 78 -40 126t-106 48q-77 0 -134.5 -73.5t-57.5 -184.5q0 -78 40 -126t106 -48zM397 566h-40l-148 167l62 39z
" />
    <glyph glyph-name="oacute" unicode="&#xf3;" horiz-adv-x="580" 
d="M299 498q94 0 154 -60t60 -152q0 -122 -77.5 -208t-196.5 -86q-93 0 -152.5 59.5t-61.5 152.5q0 122 77.5 208t196.5 86zM246 29q77 0 134.5 73.5t57.5 184.5q0 78 -40 126t-106 48q-77 0 -134.5 -73.5t-57.5 -184.5q0 -78 40 -126t106 -48zM482 733l-162 -167h-40
l143 206z" />
    <glyph glyph-name="ocircumflex" unicode="&#xf4;" horiz-adv-x="580" 
d="M299 498q94 0 154 -60t60 -152q0 -122 -77.5 -208t-196.5 -86q-93 0 -152.5 59.5t-61.5 152.5q0 122 77.5 208t196.5 86zM246 29q77 0 134.5 73.5t57.5 184.5q0 78 -40 126t-106 48q-77 0 -134.5 -73.5t-57.5 -184.5q0 -78 40 -126t106 -48zM447 566h-38l-70 98l-102 -98
h-41l158 206z" />
    <glyph glyph-name="otilde" unicode="&#xf5;" horiz-adv-x="580" 
d="M299 498q94 0 154 -60t60 -152q0 -122 -77.5 -208t-196.5 -86q-93 0 -152.5 59.5t-61.5 152.5q0 122 77.5 208t196.5 86zM246 29q77 0 134.5 73.5t57.5 184.5q0 78 -40 126t-106 48q-77 0 -134.5 -73.5t-57.5 -184.5q0 -78 40 -126t106 -48zM261 624q-24 0 -37.5 -14
t-16.5 -28l-30 9q11 37 37.5 64.5t68.5 27.5q24 0 65.5 -18.5t68.5 -18.5q24 0 37.5 14t16.5 28l30 -9q-11 -37 -37.5 -64.5t-68.5 -27.5q-25 0 -66.5 18.5t-67.5 18.5z" />
    <glyph glyph-name="odieresis" unicode="&#xf6;" horiz-adv-x="580" 
d="M299 498q94 0 154 -60t60 -152q0 -122 -77.5 -208t-196.5 -86q-93 0 -152.5 59.5t-61.5 152.5q0 122 77.5 208t196.5 86zM246 29q77 0 134.5 73.5t57.5 184.5q0 78 -40 126t-106 48q-77 0 -134.5 -73.5t-57.5 -184.5q0 -78 40 -126t106 -48zM246 592q-18 0 -30.5 13.5
t-12.5 30.5q0 25 15 40t38 15q18 0 30.5 -13.5t12.5 -30.5q0 -25 -15 -40t-38 -15zM420 592q-18 0 -30.5 13.5t-12.5 30.5q0 25 15 40t38 15q18 0 30.5 -13.5t12.5 -30.5q0 -25 -15 -40t-38 -15z" />
    <glyph glyph-name="divide" unicode="&#xf7;" horiz-adv-x="600" 
d="M529 219h-491l11 68h492zM320 412q-18 0 -30.5 13.5t-12.5 30.5q0 25 15 40t38 15q18 0 30.5 -13.5t12.5 -30.5q0 -25 -15 -40t-38 -15zM249 -5q-18 0 -30.5 13.5t-12.5 30.5q0 25 15 40t38 15q18 0 30.5 -13.5t12.5 -30.5q0 -25 -15 -40t-38 -15z" />
    <glyph glyph-name="oslash" unicode="&#xf8;" horiz-adv-x="584" 
d="M299 498q68 0 121 -34l62 72h63l-88 -102q56 -61 56 -148q0 -122 -77.5 -208t-196.5 -86q-74 0 -128 38l-62 -72h-63l90 104q-49 57 -51 142q0 122 77.5 208t196.5 86zM246 29q77 0 134.5 73.5t57.5 184.5q0 55 -22 99l-271 -316q39 -41 101 -41zM100 203q0 -53 18 -92
l269 314q-39 36 -95 36q-77 0 -134.5 -73.5t-57.5 -184.5z" />
    <glyph glyph-name="ugrave" unicode="&#xf9;" horiz-adv-x="593" 
d="M179 490l-49 -257q-6 -39 -6 -67q0 -54 30 -87.5t79 -33.5q68 0 112.5 46.5t59.5 125.5l52 273h73l-93 -490h-74l14 72q-70 -80 -168 -80q-71 0 -114 47t-43 120q0 52 14 120l40 211h73zM402 566h-40l-148 167l62 39z" />
    <glyph glyph-name="uacute" unicode="&#xfa;" horiz-adv-x="593" 
d="M179 490l-49 -257q-6 -39 -6 -67q0 -54 30 -87.5t79 -33.5q68 0 112.5 46.5t59.5 125.5l52 273h73l-93 -490h-74l14 72q-70 -80 -168 -80q-71 0 -114 47t-43 120q0 52 14 120l40 211h73zM487 733l-162 -167h-40l143 206z" />
    <glyph glyph-name="ucircumflex" unicode="&#xfb;" horiz-adv-x="593" 
d="M179 490l-49 -257q-6 -39 -6 -67q0 -54 30 -87.5t79 -33.5q68 0 112.5 46.5t59.5 125.5l52 273h73l-93 -490h-74l14 72q-70 -80 -168 -80q-71 0 -114 47t-43 120q0 52 14 120l40 211h73zM454 566h-38l-70 98l-102 -98h-41l158 206z" />
    <glyph glyph-name="udieresis" unicode="&#xfc;" horiz-adv-x="593" 
d="M179 490l-49 -257q-6 -39 -6 -67q0 -54 30 -87.5t79 -33.5q68 0 112.5 46.5t59.5 125.5l52 273h73l-93 -490h-74l14 72q-70 -80 -168 -80q-71 0 -114 47t-43 120q0 52 14 120l40 211h73zM249 592q-18 0 -30.5 13.5t-12.5 30.5q0 25 15 40t38 15q18 0 30.5 -13.5
t12.5 -30.5q0 -25 -15 -40t-38 -15zM423 592q-18 0 -30.5 13.5t-12.5 30.5q0 25 15 40t38 15q18 0 30.5 -13.5t12.5 -30.5q0 -25 -15 -40t-38 -15z" />
    <glyph glyph-name="yacute" unicode="&#xfd;" horiz-adv-x="517" 
d="M522 490l-467 -724l-61 37q11 9 29.5 27t66.5 74.5t84 115.5l-145 470h78l118 -393l241 393h56zM447 733l-162 -167h-40l143 206z" />
    <glyph glyph-name="thorn" unicode="&#xfe;" horiz-adv-x="609" 
d="M54 -193h-73l168 876h73l-48 -250q69 65 159 65q93 0 151.5 -59.5t58.5 -152.5q0 -120 -80 -207t-196 -87q-98 0 -162 80zM272 29q78 0 137 75t59 188q0 76 -39 122.5t-104 46.5q-88 0 -140.5 -76.5t-52.5 -199.5q0 -72 38.5 -114t101.5 -42z" />
    <glyph glyph-name="ydieresis" unicode="&#xff;" horiz-adv-x="517" 
d="M522 490l-467 -724l-61 37q11 9 29.5 27t66.5 74.5t84 115.5l-145 470h78l118 -393l241 393h56zM207 592q-18 0 -30.5 13.5t-12.5 30.5q0 25 15 40t38 15q18 0 30.5 -13.5t12.5 -30.5q0 -25 -15 -40t-38 -15zM381 592q-18 0 -30.5 13.5t-12.5 30.5q0 25 15 40t38 15
q18 0 30.5 -13.5t12.5 -30.5q0 -25 -15 -40t-38 -15z" />
    <glyph glyph-name="Amacron" unicode="&#x100;" horiz-adv-x="656" 
d="M594 0h-79l-73 242h-294l-145 -242h-58l434 700zM430 285l-86 284l-170 -284h256zM514 782h-260l11 54h260z" />
    <glyph glyph-name="amacron" unicode="&#x101;" horiz-adv-x="535" 
d="M461 331q0 -42 -16 -117l-20 -99q-14 -70 1 -115h-74q-11 32 -1 80q-31 -37 -77.5 -62.5t-99.5 -25.5q-70 0 -110.5 34.5t-40.5 97.5q0 164 365 202q9 60 -20 97.5t-83 37.5q-79 0 -153 -84l-42 51q93 70 195 70q90 0 133 -47t43 -120zM385 291q-283 -36 -283 -167
q0 -45 27.5 -65t67.5 -20q52 0 98.5 37t64.5 89q12 43 25 126zM445 609h-260l11 54h260z" />
    <glyph glyph-name="Abreve" unicode="&#x102;" horiz-adv-x="656" 
d="M594 0h-79l-73 242h-294l-145 -242h-58l434 700zM430 285l-86 284l-170 -284h256zM540 896q-13 -66 -55 -102.5t-102 -36.5q-52 0 -82 30.5t-30 83.5q0 14 1 25h35v-13q0 -29 23 -47.5t56 -18.5q85 0 118 79h36z" />
    <glyph glyph-name="abreve" unicode="&#x103;" horiz-adv-x="535" 
d="M461 331q0 -42 -16 -117l-20 -99q-14 -70 1 -115h-74q-11 32 -1 80q-31 -37 -77.5 -62.5t-99.5 -25.5q-70 0 -110.5 34.5t-40.5 97.5q0 164 365 202q9 60 -20 97.5t-83 37.5q-79 0 -153 -84l-42 51q93 70 195 70q90 0 133 -47t43 -120zM385 291q-283 -36 -283 -167
q0 -45 27.5 -65t67.5 -20q52 0 98.5 37t64.5 89q12 43 25 126zM465 723q-13 -66 -55 -102.5t-102 -36.5q-52 0 -82 30.5t-30 83.5q0 14 1 25h35v-13q0 -29 23 -47.5t56 -18.5q85 0 118 79h36z" />
    <glyph glyph-name="Aogonek" unicode="&#x104;" horiz-adv-x="656" 
d="M583 -209q-32 -15 -76 -15q-45 0 -74.5 24.5t-29.5 65.5q0 40 32 75t80 59l-73 242h-294l-145 -242h-58l434 700l215 -700h-31q-89 -72 -89 -123q0 -29 18.5 -45t47.5 -16q30 0 51 7zM430 285l-86 284l-170 -284h256z" />
    <glyph glyph-name="aogonek" unicode="&#x105;" horiz-adv-x="535" 
d="M399 -209q-32 -15 -76 -15q-45 0 -74.5 24.5t-29.5 65.5q0 40 32 75t80 59q-11 32 -1 80q-31 -37 -77.5 -62.5t-99.5 -25.5q-70 0 -110.5 34.5t-40.5 97.5q0 164 365 202q9 60 -20 97.5t-83 37.5q-79 0 -153 -84l-42 51q93 70 195 70q90 0 133 -47t43 -120
q0 -42 -16 -117l-20 -99q-14 -70 1 -115h-26q-89 -72 -89 -123q0 -29 18.5 -45t47.5 -16q30 0 51 7zM364 291q-283 -36 -283 -167q0 -45 27.5 -65t67.5 -20q52 0 98.5 37t64.5 89q12 43 25 126z" />
    <glyph glyph-name="Cacute" unicode="&#x106;" horiz-adv-x="680" 
d="M417 650q-109 0 -197 -101t-88 -259q0 -128 62 -191.5t154 -63.5q122 0 231 102l25 -28q-125 -117 -271 -117q-117 0 -199 78.5t-82 220.5q0 172 112.5 286t262.5 114q125 0 221 -78l-46 -56q-81 93 -185 93zM580 906l-162 -167h-40l143 206z" />
    <glyph glyph-name="cacute" unicode="&#x107;" horiz-adv-x="521" 
d="M298 459q-76 0 -137 -70t-61 -181q0 -89 40 -132t102 -43q44 0 90.5 20.5t80.5 53.5l24 -27q-91 -88 -206 -88q-88 0 -147 56.5t-59 160.5q0 124 84 206.5t196 82.5q92 0 164 -60l-40 -47q-58 68 -131 68zM466 733l-162 -167h-40l143 206z" />
    <glyph glyph-name="Ccircumflex" unicode="&#x108;" horiz-adv-x="680" 
d="M417 650q-109 0 -197 -101t-88 -259q0 -128 62 -191.5t154 -63.5q122 0 231 102l25 -28q-125 -117 -271 -117q-117 0 -199 78.5t-82 220.5q0 172 112.5 286t262.5 114q125 0 221 -78l-46 -56q-81 93 -185 93zM544 739h-38l-70 98l-102 -98h-41l158 206z" />
    <glyph glyph-name="ccircumflex" unicode="&#x109;" horiz-adv-x="521" 
d="M298 459q-76 0 -137 -70t-61 -181q0 -89 40 -132t102 -43q44 0 90.5 20.5t80.5 53.5l24 -27q-91 -88 -206 -88q-88 0 -147 56.5t-59 160.5q0 124 84 206.5t196 82.5q92 0 164 -60l-40 -47q-58 68 -131 68zM427 566h-38l-70 98l-102 -98h-41l158 206z" />
    <glyph glyph-name="uni010A" unicode="&#x10a;" horiz-adv-x="680" 
d="M417 650q-109 0 -197 -101t-88 -259q0 -128 62 -191.5t154 -63.5q122 0 231 102l25 -28q-125 -117 -271 -117q-117 0 -199 78.5t-82 220.5q0 172 112.5 286t262.5 114q125 0 221 -78l-46 -56q-81 93 -185 93zM428 765q-18 0 -30.5 13.5t-12.5 30.5q0 25 15 40t38 15
q18 0 30.5 -13.5t12.5 -30.5q0 -25 -15 -40t-38 -15z" />
    <glyph glyph-name="uni010B" unicode="&#x10b;" horiz-adv-x="521" 
d="M298 459q-76 0 -137 -70t-61 -181q0 -89 40 -132t102 -43q44 0 90.5 20.5t80.5 53.5l24 -27q-91 -88 -206 -88q-88 0 -147 56.5t-59 160.5q0 124 84 206.5t196 82.5q92 0 164 -60l-40 -47q-58 68 -131 68zM311 592q-18 0 -30.5 13.5t-12.5 30.5q0 25 15 40t38 15
q18 0 30.5 -13.5t12.5 -30.5q0 -25 -15 -40t-38 -15z" />
    <glyph glyph-name="Ccaron" unicode="&#x10c;" horiz-adv-x="680" 
d="M417 650q-109 0 -197 -101t-88 -259q0 -128 62 -191.5t154 -63.5q122 0 231 102l25 -28q-125 -117 -271 -117q-117 0 -199 78.5t-82 220.5q0 172 112.5 286t262.5 114q125 0 221 -78l-46 -56q-81 93 -185 93zM336 923h38l70 -98l102 98h41l-158 -206z" />
    <glyph glyph-name="ccaron" unicode="&#x10d;" horiz-adv-x="521" 
d="M298 459q-76 0 -137 -70t-61 -181q0 -89 40 -132t102 -43q44 0 90.5 20.5t80.5 53.5l24 -27q-91 -88 -206 -88q-88 0 -147 56.5t-59 160.5q0 124 84 206.5t196 82.5q92 0 164 -60l-40 -47q-58 68 -131 68zM214 750h38l70 -98l102 98h41l-158 -206z" />
    <glyph glyph-name="Dcaron" unicode="&#x10e;" horiz-adv-x="716" 
d="M117 43h75q88 0 148 14t108 50q69 52 102.5 130t33.5 160q0 50 -12 90t-28.5 65t-44 42.5t-49.5 26.5t-53.5 13.5t-47.5 5t-40 0.5h-77zM188 0h-154l131 683h172q159 0 234 -60q93 -75 93 -221q0 -47 -10.5 -97.5t-49 -118.5t-101.5 -114q-35 -26 -77 -42t-90.5 -21.5
t-75.5 -7t-72 -1.5zM295 923h38l70 -98l102 98h41l-158 -206z" />
    <glyph glyph-name="dcaron" unicode="&#x10f;" horiz-adv-x="629" 
d="M794 753l-132 -175h-41l110 206zM514 683h73l-131 -683h-73l11 57q-69 -65 -159 -65q-93 0 -151.5 59.5t-58.5 152.5q0 120 80 207t196 87q98 0 162 -80zM296 461q-78 0 -137 -75t-59 -188q0 -76 39 -122.5t104 -46.5q88 0 140.5 76.5t52.5 199.5q0 72 -38.5 114
t-101.5 42z" />
    <glyph glyph-name="Dcroat" unicode="&#x110;" horiz-adv-x="716" 
d="M188 0h-154l62 327h-98l8 49h100l59 307h172q159 0 234 -60q93 -75 93 -221q0 -47 -10.5 -97.5t-49 -118.5t-101.5 -114q-35 -26 -77 -42t-90.5 -21.5t-75.5 -7t-72 -1.5zM117 43h75q88 0 148 14t108 50q69 52 102.5 130t33.5 160q0 50 -12 90t-28.5 65t-44 42.5
t-49.5 26.5t-53.5 13.5t-47.5 5t-40 0.5h-77l-51 -264h180l-9 -49h-181z" />
    <glyph glyph-name="dcroat" unicode="&#x111;" horiz-adv-x="609" 
d="M516 693h73l-17 -88h65l-8 -45h-66l-107 -560h-73l11 57q-69 -65 -159 -65q-93 0 -151.5 59.5t-58.5 152.5q0 120 80 207t196 87q98 0 162 -80l27 142h-181l8 45h182zM296 461q-78 0 -137 -75t-59 -188q0 -76 39 -122.5t104 -46.5q88 0 140.5 76.5t52.5 199.5
q0 72 -38.5 114t-101.5 42z" />
    <glyph glyph-name="Emacron" unicode="&#x112;" horiz-adv-x="580" 
d="M444 0h-410l131 683h394l-10 -49l-317 6l-53 -273l315 2l-9 -47l-314 2l-54 -281l337 6zM502 782h-260l11 54h260z" />
    <glyph glyph-name="emacron" unicode="&#x113;" horiz-adv-x="562" 
d="M111 292h308q1 7 1 20q0 69 -34.5 109.5t-92.5 40.5q-60 0 -113 -45t-69 -125zM25 209q0 123 83 206t188 83q93 0 146.5 -55t53.5 -145q0 -8 -3 -44h-390q-3 -18 -3 -46q0 -89 40 -132t102 -43q44 0 90.5 20.5t80.5 53.5l24 -27q-91 -88 -206 -88q-88 0 -147 56.5
t-59 160.5zM467 609h-260l11 54h260z" />
    <glyph glyph-name="uni0116" unicode="&#x116;" horiz-adv-x="580" 
d="M444 0h-410l131 683h394l-10 -49l-317 6l-53 -273l315 2l-9 -47l-314 2l-54 -281l337 6zM371 765q-18 0 -30.5 13.5t-12.5 30.5q0 25 15 40t38 15q18 0 30.5 -13.5t12.5 -30.5q0 -25 -15 -40t-38 -15z" />
    <glyph glyph-name="uni0117" unicode="&#x117;" horiz-adv-x="562" 
d="M111 292h308q1 7 1 20q0 69 -34.5 109.5t-92.5 40.5q-60 0 -113 -45t-69 -125zM25 209q0 123 83 206t188 83q93 0 146.5 -55t53.5 -145q0 -8 -3 -44h-390q-3 -18 -3 -46q0 -89 40 -132t102 -43q44 0 90.5 20.5t80.5 53.5l24 -27q-91 -88 -206 -88q-88 0 -147 56.5
t-59 160.5zM324 592q-18 0 -30.5 13.5t-12.5 30.5q0 25 15 40t38 15q18 0 30.5 -13.5t12.5 -30.5q0 -25 -15 -40t-38 -15z" />
    <glyph glyph-name="Eogonek" unicode="&#x118;" horiz-adv-x="580" 
d="M418 -209q-32 -15 -76 -15q-45 0 -74.5 24.5t-29.5 65.5q0 40 32 75t80 59h-316l131 683h394l-10 -49l-317 6l-53 -273l315 2l-9 -47l-314 2l-54 -281l337 6l-10 -49h-51q-84 -68 -84 -123q0 -29 18.5 -45t47.5 -16q30 0 51 7z" />
    <glyph glyph-name="eogonek" unicode="&#x119;" horiz-adv-x="562" 
d="M314 -209q-32 -15 -76 -15q-45 0 -74.5 24.5t-29.5 65.5q0 72 97 126q-88 0 -147 56.5t-59 160.5q0 123 83 206t188 83q93 0 146.5 -55t53.5 -145q0 -8 -3 -44h-390q-3 -18 -3 -46q0 -89 40 -132t102 -43q44 0 90.5 20.5t80.5 53.5l24 -27q-65 -62 -143 -80
q-89 -73 -89 -123q0 -29 18.5 -45t47.5 -16q30 0 51 7zM111 292h308q1 7 1 20q0 69 -34.5 109.5t-92.5 40.5q-60 0 -113 -45t-69 -125z" />
    <glyph glyph-name="Ecaron" unicode="&#x11a;" horiz-adv-x="580" 
d="M444 0h-410l131 683h394l-10 -49l-317 6l-53 -273l315 2l-9 -47l-314 2l-54 -281l337 6zM266 923h38l70 -98l102 98h41l-158 -206z" />
    <glyph glyph-name="ecaron" unicode="&#x11b;" horiz-adv-x="562" 
d="M111 292h308q1 7 1 20q0 69 -34.5 109.5t-92.5 40.5q-60 0 -113 -45t-69 -125zM25 209q0 123 83 206t188 83q93 0 146.5 -55t53.5 -145q0 -8 -3 -44h-390q-3 -18 -3 -46q0 -89 40 -132t102 -43q44 0 90.5 20.5t80.5 53.5l24 -27q-91 -88 -206 -88q-88 0 -147 56.5
t-59 160.5zM217 750h38l70 -98l102 98h41l-158 -206z" />
    <glyph glyph-name="Gcircumflex" unicode="&#x11c;" horiz-adv-x="787" 
d="M348 -8q-129 0 -211.5 82.5t-84.5 210.5q0 168 107 287t271 119q158 0 248 -125l-59 -40q-59 126 -196 126q-116 0 -203.5 -105t-87.5 -264q0 -113 60 -182.5t163 -69.5q109 0 184 74t97 202l-247 -2l6 45h328l-1 -15q-17 -143 -122 -243t-252 -100zM561 739h-38l-70 98
l-102 -98h-41l158 206z" />
    <glyph glyph-name="gcircumflex" unicode="&#x11d;" horiz-adv-x="609" 
d="M550 490l-90 -468q-17 -108 -86.5 -165.5t-176.5 -57.5q-131 0 -216 81l52 46q57 -90 160 -90q72 0 126 46t70 149l5 26q-69 -65 -159 -65q-93 0 -151.5 59.5t-58.5 152.5q0 120 80 207t196 87q98 0 162 -80l14 72h73zM296 461q-78 0 -137 -75t-59 -188q0 -76 39 -122.5
t104 -46.5q88 0 140.5 76.5t52.5 199.5q0 72 -38.5 114t-101.5 42zM454 566h-38l-70 98l-102 -98h-41l158 206z" />
    <glyph glyph-name="Gbreve" unicode="&#x11e;" horiz-adv-x="787" 
d="M348 -8q-129 0 -211.5 82.5t-84.5 210.5q0 168 107 287t271 119q158 0 248 -125l-59 -40q-59 126 -196 126q-116 0 -203.5 -105t-87.5 -264q0 -113 60 -182.5t163 -69.5q109 0 184 74t97 202l-247 -2l6 45h328l-1 -15q-17 -143 -122 -243t-252 -100zM596 896
q-13 -66 -55 -102.5t-102 -36.5q-52 0 -82 30.5t-30 83.5q0 14 1 25h35v-13q0 -29 23 -47.5t56 -18.5q85 0 118 79h36z" />
    <glyph glyph-name="gbreve" unicode="&#x11f;" horiz-adv-x="609" 
d="M550 490l-90 -468q-17 -108 -86.5 -165.5t-176.5 -57.5q-131 0 -216 81l52 46q57 -90 160 -90q72 0 126 46t70 149l5 26q-69 -65 -159 -65q-93 0 -151.5 59.5t-58.5 152.5q0 120 80 207t196 87q98 0 162 -80l14 72h73zM296 461q-78 0 -137 -75t-59 -188q0 -76 39 -122.5
t104 -46.5q88 0 140.5 76.5t52.5 199.5q0 72 -38.5 114t-101.5 42zM491 723q-13 -66 -55 -102.5t-102 -36.5q-52 0 -82 30.5t-30 83.5q0 14 1 25h35v-13q0 -29 23 -47.5t56 -18.5q85 0 118 79h36z" />
    <glyph glyph-name="uni0120" unicode="&#x120;" horiz-adv-x="787" 
d="M348 -8q-129 0 -211.5 82.5t-84.5 210.5q0 168 107 287t271 119q158 0 248 -125l-59 -40q-59 126 -196 126q-116 0 -203.5 -105t-87.5 -264q0 -113 60 -182.5t163 -69.5q109 0 184 74t97 202l-247 -2l6 45h328l-1 -15q-17 -143 -122 -243t-252 -100zM445 765
q-18 0 -30.5 13.5t-12.5 30.5q0 25 15 40t38 15q18 0 30.5 -13.5t12.5 -30.5q0 -25 -15 -40t-38 -15z" />
    <glyph glyph-name="uni0121" unicode="&#x121;" horiz-adv-x="609" 
d="M550 490l-90 -468q-17 -108 -86.5 -165.5t-176.5 -57.5q-131 0 -216 81l52 46q57 -90 160 -90q72 0 126 46t70 149l5 26q-69 -65 -159 -65q-93 0 -151.5 59.5t-58.5 152.5q0 120 80 207t196 87q98 0 162 -80l14 72h73zM296 461q-78 0 -137 -75t-59 -188q0 -76 39 -122.5
t104 -46.5q88 0 140.5 76.5t52.5 199.5q0 72 -38.5 114t-101.5 42zM330 592q-18 0 -30.5 13.5t-12.5 30.5q0 25 15 40t38 15q18 0 30.5 -13.5t12.5 -30.5q0 -25 -15 -40t-38 -15z" />
    <glyph glyph-name="uni0122" unicode="&#x122;" horiz-adv-x="787" 
d="M422 -71l-132 -175h-41l110 206zM348 -8q-129 0 -211.5 82.5t-84.5 210.5q0 168 107 287t271 119q158 0 248 -125l-59 -40q-59 126 -196 126q-116 0 -203.5 -105t-87.5 -264q0 -113 60 -182.5t163 -69.5q109 0 184 74t97 202l-247 -2l6 45h328l-1 -15q-17 -143 -122 -243
t-252 -100z" />
    <glyph glyph-name="uni0123" unicode="&#x123;" horiz-adv-x="609" 
d="M255 597l117 175h41l-93 -206zM550 490l-90 -468q-17 -108 -86.5 -165.5t-176.5 -57.5q-131 0 -216 81l52 46q57 -90 160 -90q72 0 126 46t70 149l5 26q-69 -65 -159 -65q-93 0 -151.5 59.5t-58.5 152.5q0 120 80 207t196 87q98 0 162 -80l14 72h73zM296 461
q-78 0 -137 -75t-59 -188q0 -76 39 -122.5t104 -46.5q88 0 140.5 76.5t52.5 199.5q0 72 -38.5 114t-101.5 42z" />
    <glyph glyph-name="Hcircumflex" unicode="&#x124;" horiz-adv-x="712" 
d="M546 0h-75l63 330h-362l-63 -330h-75l131 683h75l-60 -310h362l60 310h75zM548 739h-38l-70 98l-102 -98h-41l158 206z" />
    <glyph glyph-name="hcircumflex" unicode="&#x125;" horiz-adv-x="593" 
d="M371 0l49 257q6 39 6 67q0 54 -30 87.5t-79 33.5q-68 0 -112.5 -46.5t-59.5 -125.5l-52 -273h-73l131 683h73l-51 -265q70 80 168 80q71 0 114 -47t43 -120q0 -52 -14 -120l-40 -211h-73zM317 739h-38l-70 98l-102 -98h-41l158 206z" />
    <glyph glyph-name="Hbar" unicode="&#x126;" horiz-adv-x="712" 
d="M546 0h-75l63 330h-362l-63 -330h-75l96 500h-77l8 45h77l27 138h75l-27 -138h362l27 138h75l-27 -138h77l-8 -45h-77zM180 373h362l24 127h-362z" />
    <glyph glyph-name="hbar" unicode="&#x127;" horiz-adv-x="593" 
d="M371 0l49 257q6 39 6 67q0 54 -30 87.5t-79 33.5q-68 0 -112.5 -46.5t-59.5 -125.5l-52 -273h-73l107 560h-66l9 45h66l17 88h73l-17 -88h181l-9 -45h-181l-27 -142q70 80 168 80q71 0 114 -47t43 -120q0 -52 -14 -120l-40 -211h-73z" />
    <glyph glyph-name="Itilde" unicode="&#x128;" horiz-adv-x="298" 
d="M121 0h-75l131 683h75zM161 797q-24 0 -37.5 -14t-16.5 -28l-30 9q11 37 37.5 64.5t68.5 27.5q24 0 65.5 -18.5t68.5 -18.5q24 0 37.5 14t16.5 28l30 -9q-11 -37 -37.5 -64.5t-68.5 -27.5q-25 0 -66.5 18.5t-67.5 18.5z" />
    <glyph glyph-name="itilde" unicode="&#x129;" horiz-adv-x="269" 
d="M103 0h-74l93 490h74zM104 624q-24 0 -37.5 -14t-16.5 -28l-30 9q11 37 37.5 64.5t68.5 27.5q24 0 65.5 -18.5t68.5 -18.5q24 0 37.5 14t16.5 28l30 -9q-11 -37 -37.5 -64.5t-68.5 -27.5q-25 0 -66.5 18.5t-67.5 18.5z" />
    <glyph glyph-name="Imacron" unicode="&#x12a;" horiz-adv-x="298" 
d="M121 0h-75l131 683h75zM354 782h-260l11 54h260z" />
    <glyph glyph-name="imacron" unicode="&#x12b;" horiz-adv-x="269" 
d="M103 0h-74l93 490h74zM309 609h-260l11 54h260z" />
    <glyph glyph-name="Iogonek" unicode="&#x12e;" horiz-adv-x="298" 
d="M141 -209q-32 -15 -76 -15q-45 0 -74.5 24.5t-29.5 65.5q0 40 32 75t80 59h-27l131 683h75l-131 -683q-89 -72 -89 -123q0 -29 18.5 -45t47.5 -16q30 0 51 7z" />
    <glyph glyph-name="iogonek" unicode="&#x12f;" horiz-adv-x="269" 
d="M123 -209q-32 -15 -76 -15q-45 0 -74.5 24.5t-29.5 65.5q0 40 32 75t80 59h-26l93 490h74l-93 -490q-89 -72 -89 -123q0 -29 18.5 -45t47.5 -16q30 0 51 7zM184 592q-18 0 -30.5 13.5t-12.5 30.5q0 25 15 40t38 15q18 0 30.5 -13.5t12.5 -30.5q0 -25 -15 -40t-38 -15z
" />
    <glyph glyph-name="uni0130" unicode="&#x130;" horiz-adv-x="298" 
d="M121 0h-75l131 683h75zM229 765q-18 0 -30.5 13.5t-12.5 30.5q0 25 15 40t38 15q18 0 30.5 -13.5t12.5 -30.5q0 -25 -15 -40t-38 -15z" />
    <glyph glyph-name="dotlessi" unicode="&#x131;" horiz-adv-x="269" 
d="M103 0h-74l93 490h74z" />
    <glyph glyph-name="IJ" unicode="&#x132;" horiz-adv-x="768" 
d="M733 683l-96 -500q-15 -79 -69.5 -135t-143.5 -56q-55 0 -103 22.5t-77 64.5l54 47q23 -40 56.5 -66t67.5 -26q55 0 90.5 44t50.5 121l94 484h76zM121 0h-75l131 683h75z" />
    <glyph glyph-name="ij" unicode="&#x133;" horiz-adv-x="526" 
d="M356 -27q-31 -174 -187 -174q-75 0 -116 38l42 44q27 -46 73 -46q89 0 113 132l95 523h74zM434 592q-19 0 -31.5 13.5t-12.5 30.5q0 25 15.5 40t38.5 15q19 0 31.5 -13.5t12.5 -30.5q0 -25 -15.5 -40t-38.5 -15zM103 0h-74l93 490h74zM184 592q-18 0 -30.5 13.5
t-12.5 30.5q0 25 15 40t38 15q18 0 30.5 -13.5t12.5 -30.5q0 -25 -15 -40t-38 -15z" />
    <glyph glyph-name="Jcircumflex" unicode="&#x134;" horiz-adv-x="506" 
d="M471 683l-96 -500q-15 -79 -69.5 -135t-143.5 -56q-55 0 -103 22.5t-77 64.5l54 47q23 -40 56.5 -66t67.5 -26q55 0 90.5 44t50.5 121l94 484h76zM562 739h-38l-70 98l-102 -98h-41l158 206z" />
    <glyph glyph-name="jcircumflex" unicode="&#x135;" horiz-adv-x="269" 
d="M99 -27q-31 -174 -187 -174q-75 0 -116 38l42 44q27 -46 73 -46q89 0 113 132l95 523h74zM290 566h-38l-70 98l-102 -98h-41l158 206z" />
    <glyph glyph-name="uni0136" unicode="&#x136;" horiz-adv-x="644" 
d="M330 -71l-132 -175h-41l110 206zM558 0h-96l-288 341l403 342h77l-406 -318zM109 0h-75l131 683h75z" />
    <glyph glyph-name="uni0137" unicode="&#x137;" horiz-adv-x="516" 
d="M277 -71l-132 -175h-41l110 206zM445 0h-92l-212 252l279 238h71l-279 -213zM93 0h-73l131 683h73z" />
    <glyph glyph-name="Lacute" unicode="&#x139;" horiz-adv-x="536" 
d="M444 0h-410l131 683h75l-123 -640l337 6zM356 906l-162 -167h-40l143 206z" />
    <glyph glyph-name="lacute" unicode="&#x13a;" horiz-adv-x="269" 
d="M103 0h-74l130 683h74zM340 906l-162 -167h-40l143 206z" />
    <glyph glyph-name="uni013B" unicode="&#x13b;" horiz-adv-x="536" 
d="M307 -71l-132 -175h-41l110 206zM444 0h-410l131 683h75l-123 -640l337 6z" />
    <glyph glyph-name="uni013C" unicode="&#x13c;" horiz-adv-x="269" 
d="M136 -71l-132 -175h-41l110 206zM103 0h-74l130 683h74z" />
    <glyph glyph-name="Lcaron" unicode="&#x13d;" horiz-adv-x="536" 
d="M519 753l-132 -175h-41l110 206zM444 0h-410l131 683h75l-123 -640l337 6z" />
    <glyph glyph-name="lcaron" unicode="&#x13e;" horiz-adv-x="289" 
d="M444 753l-132 -175h-41l110 206zM103 0h-74l130 683h74z" />
    <glyph glyph-name="Ldot" unicode="&#x13f;" horiz-adv-x="536" 
d="M444 0h-410l131 683h75l-123 -640l337 6zM400 331q-18 0 -30.5 13.5t-12.5 30.5q0 25 15 40t38 15q18 0 30.5 -13.5t12.5 -30.5q0 -25 -15 -40t-38 -15z" />
    <glyph glyph-name="ldot" unicode="&#x140;" horiz-adv-x="299" 
d="M103 0h-74l130 683h74zM281 311q-18 0 -30.5 13.5t-12.5 30.5q0 25 15 40t38 15q18 0 30.5 -13.5t12.5 -30.5q0 -25 -15 -40t-38 -15z" />
    <glyph glyph-name="Lslash" unicode="&#x141;" horiz-adv-x="536" 
d="M444 0h-410l54 282l-107 -63l9 57l109 64l66 343h75l-57 -293l197 117l-9 -57l-199 -118l-55 -289l337 6z" />
    <glyph glyph-name="lslash" unicode="&#x142;" horiz-adv-x="304" 
d="M120 0h-74l61 320l-115 -68l8 57l118 69l58 305h74l-49 -255l121 71l-9 -57l-123 -73z" />
    <glyph glyph-name="Nacute" unicode="&#x143;" horiz-adv-x="727" 
d="M558 -17l-376 565l-97 -548h-51l134 700l376 -565l97 548h51zM595 906l-162 -167h-40l143 206z" />
    <glyph glyph-name="nacute" unicode="&#x144;" horiz-adv-x="593" 
d="M371 0l49 257q6 39 6 67q0 54 -30 87.5t-79 33.5q-68 0 -112.5 -46.5t-59.5 -125.5l-52 -273h-73l93 490h74l-14 -72q70 80 168 80q71 0 114 -47t43 -120q0 -52 -14 -120l-40 -211h-73zM488 733l-162 -167h-40l143 206z" />
    <glyph glyph-name="uni0145" unicode="&#x145;" horiz-adv-x="727" 
d="M359 -71l-132 -175h-41l110 206zM558 -17l-376 565l-97 -548h-51l134 700l376 -565l97 548h51z" />
    <glyph glyph-name="uni0146" unicode="&#x146;" horiz-adv-x="593" 
d="M290 -71l-132 -175h-41l110 206zM371 0l49 257q6 39 6 67q0 54 -30 87.5t-79 33.5q-68 0 -112.5 -46.5t-59.5 -125.5l-52 -273h-73l93 490h74l-14 -72q70 80 168 80q71 0 114 -47t43 -120q0 -52 -14 -120l-40 -211h-73z" />
    <glyph glyph-name="Ncaron" unicode="&#x147;" horiz-adv-x="727" 
d="M558 -17l-376 565l-97 -548h-51l134 700l376 -565l97 548h51zM335 923h38l70 -98l102 98h41l-158 -206z" />
    <glyph glyph-name="ncaron" unicode="&#x148;" horiz-adv-x="593" 
d="M371 0l49 257q6 39 6 67q0 54 -30 87.5t-79 33.5q-68 0 -112.5 -46.5t-59.5 -125.5l-52 -273h-73l93 490h74l-14 -72q70 80 168 80q71 0 114 -47t43 -120q0 -52 -14 -120l-40 -211h-73zM244 750h38l70 -98l102 98h41l-158 -206z" />
    <glyph glyph-name="Eng" unicode="&#x14a;" horiz-adv-x="727" 
d="M692 683l-136 -710q-11 -77 -54 -125.5t-116 -48.5q-76 0 -123 38l44 46q11 -14 18.5 -21t27.5 -16.5t45 -9.5q84 0 107 131l13 75l-336 506l-97 -548h-51l134 700l376 -565l97 548h51z" />
    <glyph glyph-name="eng" unicode="&#x14b;" horiz-adv-x="593" 
d="M484 211l-45 -238q-31 -174 -187 -174q-75 0 -116 38l42 44q27 -46 73 -46q90 0 114 132l55 290q6 39 6 67q0 54 -30 87.5t-79 33.5q-68 0 -112.5 -46.5t-59.5 -125.5l-52 -273h-73l93 490h74l-14 -72q70 80 168 80q71 0 114 -47t43 -120q0 -52 -14 -120z" />
    <glyph glyph-name="Omacron" unicode="&#x14c;" horiz-adv-x="779" 
d="M430 691q128 0 211 -82.5t85 -209.5q0 -168 -107.5 -287.5t-270.5 -119.5q-129 0 -211.5 82.5t-84.5 210.5q0 168 107 287t271 119zM355 31q116 0 203 105.5t87 264.5q0 112 -60 181.5t-162 69.5q-116 0 -203.5 -105t-87.5 -264q0 -113 60 -182.5t163 -69.5zM584 782
h-260l11 54h260z" />
    <glyph glyph-name="omacron" unicode="&#x14d;" horiz-adv-x="580" 
d="M299 498q94 0 154 -60t60 -152q0 -122 -77.5 -208t-196.5 -86q-93 0 -152.5 59.5t-61.5 152.5q0 122 77.5 208t196.5 86zM246 29q77 0 134.5 73.5t57.5 184.5q0 78 -40 126t-106 48q-77 0 -134.5 -73.5t-57.5 -184.5q0 -78 40 -126t106 -48zM462 609h-260l11 54h260z" />
    <glyph glyph-name="Ohungarumlaut" unicode="&#x150;" horiz-adv-x="779" 
d="M430 691q128 0 211 -82.5t85 -209.5q0 -168 -107.5 -287.5t-270.5 -119.5q-129 0 -211.5 82.5t-84.5 210.5q0 168 107 287t271 119zM355 31q116 0 203 105.5t87 264.5q0 112 -60 181.5t-162 69.5q-116 0 -203.5 -105t-87.5 -264q0 -113 60 -182.5t163 -69.5zM536 924
l-147 -185h-40l125 220zM690 906l-162 -167h-40l144 206z" />
    <glyph glyph-name="ohungarumlaut" unicode="&#x151;" horiz-adv-x="580" 
d="M299 498q94 0 154 -60t60 -152q0 -122 -77.5 -208t-196.5 -86q-93 0 -152.5 59.5t-61.5 152.5q0 122 77.5 208t196.5 86zM246 29q77 0 134.5 73.5t57.5 184.5q0 78 -40 126t-106 48q-77 0 -134.5 -73.5t-57.5 -184.5q0 -78 40 -126t106 -48zM426 751l-147 -185h-40
l125 220zM580 733l-162 -167h-40l144 206z" />
    <glyph glyph-name="OE" unicode="&#x152;" horiz-adv-x="955" 
d="M819 0h-255q-35 0 -107 -4.5t-113 -4.5q-144 0 -218 82t-74 217q0 180 115 291t298 111q41 0 119 -4.5t113 -4.5h237l-10 -49l-311 6l-53 -273l309 2l-9 -47l-308 2l-54 -281l331 6zM537 640q-36 6 -88 6q-134 0 -226 -101.5t-92 -254.5q0 -116 56.5 -184.5t170.5 -68.5
q23 0 65 6z" />
    <glyph glyph-name="oe" unicode="&#x153;" horiz-adv-x="967" 
d="M239 -8q-93 0 -152.5 59.5t-61.5 152.5q0 122 77.5 208t196.5 86q66 0 116.5 -31t73.5 -79q37 50 93 80t117 30q93 0 146.5 -55t53.5 -145q0 -8 -3 -44h-390q-3 -18 -3 -46q0 -89 40 -132t102 -43q44 0 90.5 20.5t80.5 53.5l24 -27q-91 -88 -206 -88q-62 0 -111 29
t-71 79q-33 -48 -89 -78t-124 -30zM246 29q77 0 134.5 73.5t57.5 184.5q0 78 -40 126t-106 48q-77 0 -134.5 -73.5t-57.5 -184.5q0 -78 40 -126t106 -48zM514 292h308q1 7 1 20q0 69 -34.5 109.5t-92.5 40.5q-60 0 -113 -45t-69 -125z" />
    <glyph glyph-name="Racute" unicode="&#x154;" horiz-adv-x="624" 
d="M208 324h80q87 0 155.5 45t68.5 133q0 77 -47.5 107.5t-131.5 30.5h-101l-123 -640h-75l131 683h194q108 0 169 -44.5t61 -135.5q0 -92 -68 -149t-198 -61l222 -293h-92zM526 906l-162 -167h-40l143 206z" />
    <glyph glyph-name="racute" unicode="&#x155;" horiz-adv-x="344" 
d="M344 439q-76 9 -129 -33.5t-66 -111.5l-56 -294h-73l93 490h74l-15 -76q33 40 75.5 63t107.5 21zM390 733l-162 -167h-40l143 206z" />
    <glyph glyph-name="uni0156" unicode="&#x156;" horiz-adv-x="624" 
d="M328 -71l-132 -175h-41l110 206zM208 324h80q87 0 155.5 45t68.5 133q0 77 -47.5 107.5t-131.5 30.5h-101l-123 -640h-75l131 683h194q108 0 169 -44.5t61 -135.5q0 -92 -68 -149t-198 -61l222 -293h-92z" />
    <glyph glyph-name="uni0157" unicode="&#x157;" horiz-adv-x="344" 
d="M134 -71l-132 -175h-41l110 206zM344 439q-76 9 -129 -33.5t-66 -111.5l-56 -294h-73l93 490h74l-15 -76q33 40 75.5 63t107.5 21z" />
    <glyph glyph-name="Rcaron" unicode="&#x158;" horiz-adv-x="624" 
d="M208 324h80q87 0 155.5 45t68.5 133q0 77 -47.5 107.5t-131.5 30.5h-101l-123 -640h-75l131 683h194q108 0 169 -44.5t61 -135.5q0 -92 -68 -149t-198 -61l222 -293h-92zM275 923h38l70 -98l102 98h41l-158 -206z" />
    <glyph glyph-name="rcaron" unicode="&#x159;" horiz-adv-x="344" 
d="M344 439q-76 9 -129 -33.5t-66 -111.5l-56 -294h-73l93 490h74l-15 -76q33 40 75.5 63t107.5 21zM146 750h38l70 -98l102 98h41l-158 -206z" />
    <glyph glyph-name="Sacute" unicode="&#x15a;" 
d="M528 542l-66 -17q-17 56 -53 90t-89 34q-58 0 -102.5 -37t-44.5 -90q0 -35 23.5 -61.5t58.5 -42t76 -35.5t76 -40.5t58.5 -58t23.5 -86.5q0 -83 -73 -144.5t-175 -61.5q-96 0 -154 54t-68 122l68 18q4 -61 50 -106t110 -45q66 0 115.5 41t49.5 104q0 43 -32.5 75
t-79 53.5t-93 44.5t-79 60.5t-32.5 88.5q0 76 66.5 132.5t161.5 56.5q88 0 141.5 -44.5t62.5 -104.5zM491 906l-162 -167h-40l143 206z" />
    <glyph glyph-name="sacute" unicode="&#x15b;" horiz-adv-x="494" 
d="M423 384l-64 -14q-14 41 -42 66t-69 25q-45 0 -77.5 -24.5t-32.5 -62.5q0 -25 26 -45.5t63 -36.5t74 -33.5t63 -47t26 -68.5q0 -61 -60 -106t-144 -45q-78 0 -126 41t-58 93l66 15q6 -46 41 -78.5t85 -32.5q51 0 87.5 28t36.5 72q0 26 -26 47t-63 37.5t-74.5 34.5
t-63.5 46t-26 64q0 56 55 97.5t133 41.5q73 0 117 -33.5t53 -80.5zM437 733l-162 -167h-40l143 206z" />
    <glyph glyph-name="Scircumflex" unicode="&#x15c;" 
d="M528 542l-66 -17q-17 56 -53 90t-89 34q-58 0 -102.5 -37t-44.5 -90q0 -35 23.5 -61.5t58.5 -42t76 -35.5t76 -40.5t58.5 -58t23.5 -86.5q0 -83 -73 -144.5t-175 -61.5q-96 0 -154 54t-68 122l68 18q4 -61 50 -106t110 -45q66 0 115.5 41t49.5 104q0 43 -32.5 75
t-79 53.5t-93 44.5t-79 60.5t-32.5 88.5q0 76 66.5 132.5t161.5 56.5q88 0 141.5 -44.5t62.5 -104.5zM456 739h-38l-70 98l-102 -98h-41l158 206z" />
    <glyph glyph-name="scircumflex" unicode="&#x15d;" horiz-adv-x="494" 
d="M423 384l-64 -14q-14 41 -42 66t-69 25q-45 0 -77.5 -24.5t-32.5 -62.5q0 -25 26 -45.5t63 -36.5t74 -33.5t63 -47t26 -68.5q0 -61 -60 -106t-144 -45q-78 0 -126 41t-58 93l66 15q6 -46 41 -78.5t85 -32.5q51 0 87.5 28t36.5 72q0 26 -26 47t-63 37.5t-74.5 34.5
t-63.5 46t-26 64q0 56 55 97.5t133 41.5q73 0 117 -33.5t53 -80.5zM391 566h-38l-70 98l-102 -98h-41l158 206z" />
    <glyph glyph-name="Scedilla" unicode="&#x15e;" 
d="M352 -138q0 -36 -36.5 -62t-109.5 -26l-71 6l20 42q29 -12 58 -12t49.5 13t20.5 37t-26 36t-67 3l40 93q-91 3 -146.5 56.5t-64.5 119.5l68 18q4 -61 50 -106t110 -45q66 0 115.5 41t49.5 104q0 43 -32.5 75t-79 53.5t-93 44.5t-79 60.5t-32.5 88.5q0 76 66.5 132.5
t161.5 56.5q88 0 141.5 -44.5t62.5 -104.5l-66 -17q-17 56 -53 90t-89 34q-58 0 -102.5 -37t-44.5 -90q0 -35 23.5 -61.5t58.5 -42t76 -35.5t76 -40.5t58.5 -58t23.5 -86.5q0 -78 -65.5 -138t-160.5 -67l-22 -51q44 0 77.5 -19t33.5 -61z" />
    <glyph glyph-name="scedilla" unicode="&#x15f;" horiz-adv-x="494" 
d="M293 -138q0 -36 -36.5 -62t-109.5 -26l-71 6l20 42q29 -12 58 -12t49.5 13t20.5 37t-26 36t-67 3l40 93q-72 4 -116 44t-53 90l66 15q6 -46 41 -78.5t85 -32.5q51 0 87.5 28t36.5 72q0 26 -26 47t-63 37.5t-74.5 34.5t-63.5 46t-26 64q0 56 55 97.5t133 41.5
q73 0 117 -33.5t53 -80.5l-64 -14q-14 41 -42 66t-69 25q-45 0 -77.5 -24.5t-32.5 -62.5q0 -25 26 -45.5t63 -36.5t74 -33.5t63 -47t26 -68.5q0 -58 -54.5 -102.5t-132.5 -48.5l-21 -50q44 0 77.5 -19t33.5 -61z" />
    <glyph glyph-name="Scaron" unicode="&#x160;" 
d="M528 542l-66 -17q-17 56 -53 90t-89 34q-58 0 -102.5 -37t-44.5 -90q0 -35 23.5 -61.5t58.5 -42t76 -35.5t76 -40.5t58.5 -58t23.5 -86.5q0 -83 -73 -144.5t-175 -61.5q-96 0 -154 54t-68 122l68 18q4 -61 50 -106t110 -45q66 0 115.5 41t49.5 104q0 43 -32.5 75
t-79 53.5t-93 44.5t-79 60.5t-32.5 88.5q0 76 66.5 132.5t161.5 56.5q88 0 141.5 -44.5t62.5 -104.5zM231 923h38l70 -98l102 98h41l-158 -206z" />
    <glyph glyph-name="scaron" unicode="&#x161;" horiz-adv-x="494" 
d="M423 384l-64 -14q-14 41 -42 66t-69 25q-45 0 -77.5 -24.5t-32.5 -62.5q0 -25 26 -45.5t63 -36.5t74 -33.5t63 -47t26 -68.5q0 -61 -60 -106t-144 -45q-78 0 -126 41t-58 93l66 15q6 -46 41 -78.5t85 -32.5q51 0 87.5 28t36.5 72q0 26 -26 47t-63 37.5t-74.5 34.5
t-63.5 46t-26 64q0 56 55 97.5t133 41.5q73 0 117 -33.5t53 -80.5zM162 750h38l70 -98l102 98h41l-158 -206z" />
    <glyph glyph-name="Tcommaaccent" unicode="&#x162;" horiz-adv-x="521" 
d="M263 -71l-132 -175h-41l110 206zM553 636l-198 4l-122 -640h-75l122 640l-200 -4l9 47h473z" />
    <glyph glyph-name="Tcommaaccent" unicode="&#x21a;" horiz-adv-x="521" 
d="M263 -71l-132 -175h-41l110 206zM553 636l-198 4l-122 -640h-75l122 640l-200 -4l9 47h473z" />
    <glyph glyph-name="tcommaaccent" unicode="&#x163;" horiz-adv-x="334" 
d="M170 -71l-132 -175h-41l110 206zM135 0h-74q-10 55 4 131l60 315l-103 -1l9 45l102 -1l31 161h74l-31 -161l143 1l-9 -45l-142 1l-60 -315q-14 -76 -4 -131z" />
    <glyph glyph-name="tcommaaccent" unicode="&#x21b;" horiz-adv-x="334" 
d="M170 -71l-132 -175h-41l110 206zM135 0h-74q-10 55 4 131l60 315l-103 -1l9 45l102 -1l31 161h74l-31 -161l143 1l-9 -45l-142 1l-60 -315q-14 -76 -4 -131z" />
    <glyph glyph-name="Tcaron" unicode="&#x164;" horiz-adv-x="521" 
d="M553 636l-198 4l-122 -640h-75l122 640l-200 -4l9 47h473zM236 923h38l70 -98l102 98h41l-158 -206z" />
    <glyph glyph-name="tcaron" unicode="&#x165;" horiz-adv-x="334" 
d="M465 753l-132 -175h-41l110 206zM135 0h-74q-10 55 4 131l60 315l-103 -1l9 45l102 -1l31 161h74l-31 -161l143 1l-9 -45l-142 1l-60 -315q-14 -76 -4 -131z" />
    <glyph glyph-name="Tbar" unicode="&#x166;" horiz-adv-x="521" 
d="M553 636l-198 4l-49 -256h137l-10 -49h-136l-64 -335h-75l64 335h-134l10 49h133l49 256l-200 -4l9 47h473z" />
    <glyph glyph-name="tbar" unicode="&#x167;" horiz-adv-x="334" 
d="M135 0h-74q-10 55 4 131l26 136h-82l9 45h81l26 134l-103 -1l9 45l102 -1l31 161h74l-31 -161l143 1l-9 -45l-142 1l-26 -134h109l-9 -45h-108l-26 -136q-14 -76 -4 -131z" />
    <glyph glyph-name="Utilde" unicode="&#x168;" horiz-adv-x="721" 
d="M688 683l-65 -343q-9 -50 -16.5 -81t-20 -72t-27 -66t-37.5 -52t-51.5 -42t-68 -24.5t-88.5 -9.5q-111 0 -174.5 55t-63.5 152q0 44 15 130l68 353h75l-80 -413q-6 -28 -6 -70q0 -79 45 -122t126 -43q101 0 148 66t77 223l68 359h76zM368 797q-24 0 -37.5 -14t-16.5 -28
l-30 9q11 37 37.5 64.5t68.5 27.5q24 0 65.5 -18.5t68.5 -18.5q24 0 37.5 14t16.5 28l30 -9q-11 -37 -37.5 -64.5t-68.5 -27.5q-25 0 -66.5 18.5t-67.5 18.5z" />
    <glyph glyph-name="utilde" unicode="&#x169;" horiz-adv-x="593" 
d="M179 490l-49 -257q-6 -39 -6 -67q0 -54 30 -87.5t79 -33.5q68 0 112.5 46.5t59.5 125.5l52 273h73l-93 -490h-74l14 72q-70 -80 -168 -80q-71 0 -114 47t-43 120q0 52 14 120l40 211h73zM268 624q-24 0 -37.5 -14t-16.5 -28l-30 9q11 37 37.5 64.5t68.5 27.5
q24 0 65.5 -18.5t68.5 -18.5q24 0 37.5 14t16.5 28l30 -9q-11 -37 -37.5 -64.5t-68.5 -27.5q-25 0 -66.5 18.5t-67.5 18.5z" />
    <glyph glyph-name="Umacron" unicode="&#x16a;" horiz-adv-x="721" 
d="M688 683l-65 -343q-9 -50 -16.5 -81t-20 -72t-27 -66t-37.5 -52t-51.5 -42t-68 -24.5t-88.5 -9.5q-111 0 -174.5 55t-63.5 152q0 44 15 130l68 353h75l-80 -413q-6 -28 -6 -70q0 -79 45 -122t126 -43q101 0 148 66t77 223l68 359h76zM561 782h-260l11 54h260z" />
    <glyph glyph-name="umacron" unicode="&#x16b;" horiz-adv-x="593" 
d="M179 490l-49 -257q-6 -39 -6 -67q0 -54 30 -87.5t79 -33.5q68 0 112.5 46.5t59.5 125.5l52 273h73l-93 -490h-74l14 72q-70 -80 -168 -80q-71 0 -114 47t-43 120q0 52 14 120l40 211h73zM469 609h-260l11 54h260z" />
    <glyph glyph-name="Ubreve" unicode="&#x16c;" horiz-adv-x="721" 
d="M688 683l-65 -343q-9 -50 -16.5 -81t-20 -72t-27 -66t-37.5 -52t-51.5 -42t-68 -24.5t-88.5 -9.5q-111 0 -174.5 55t-63.5 152q0 44 15 130l68 353h75l-80 -413q-6 -28 -6 -70q0 -79 45 -122t126 -43q101 0 148 66t77 223l68 359h76zM581 896q-13 -66 -55 -102.5
t-102 -36.5q-52 0 -82 30.5t-30 83.5q0 14 1 25h35v-13q0 -29 23 -47.5t56 -18.5q85 0 118 79h36z" />
    <glyph glyph-name="ubreve" unicode="&#x16d;" horiz-adv-x="593" 
d="M179 490l-49 -257q-6 -39 -6 -67q0 -54 30 -87.5t79 -33.5q68 0 112.5 46.5t59.5 125.5l52 273h73l-93 -490h-74l14 72q-70 -80 -168 -80q-71 0 -114 47t-43 120q0 52 14 120l40 211h73zM489 723q-13 -66 -55 -102.5t-102 -36.5q-52 0 -82 30.5t-30 83.5q0 14 1 25h35
v-13q0 -29 23 -47.5t56 -18.5q85 0 118 79h36z" />
    <glyph glyph-name="Uring" unicode="&#x16e;" horiz-adv-x="721" 
d="M688 683l-65 -343q-9 -50 -16.5 -81t-20 -72t-27 -66t-37.5 -52t-51.5 -42t-68 -24.5t-88.5 -9.5q-111 0 -174.5 55t-63.5 152q0 44 15 130l68 353h75l-80 -413q-6 -28 -6 -70q0 -79 45 -122t126 -43q101 0 148 66t77 223l68 359h76zM453 971q45 0 74 -30t29 -73
q0 -54 -39 -91.5t-97 -37.5q-44 0 -73 30t-29 73q0 54 39 91.5t96 37.5zM426 771q30 0 53 29t23 73q0 29 -14.5 47.5t-39.5 18.5q-31 0 -54 -29t-23 -73q0 -30 15 -48t40 -18z" />
    <glyph glyph-name="uring" unicode="&#x16f;" horiz-adv-x="593" 
d="M179 490l-49 -257q-6 -39 -6 -67q0 -54 30 -87.5t79 -33.5q68 0 112.5 46.5t59.5 125.5l52 273h73l-93 -490h-74l14 72q-70 -80 -168 -80q-71 0 -114 47t-43 120q0 52 14 120l40 211h73zM361 798q45 0 74 -30t29 -73q0 -54 -39 -91.5t-97 -37.5q-44 0 -73 30t-29 73
q0 54 39 91.5t96 37.5zM334 598q30 0 53 29t23 73q0 29 -14.5 47.5t-39.5 18.5q-31 0 -54 -29t-23 -73q0 -30 15 -48t40 -18z" />
    <glyph glyph-name="Uhungarumlaut" unicode="&#x170;" horiz-adv-x="721" 
d="M688 683l-65 -343q-9 -50 -16.5 -81t-20 -72t-27 -66t-37.5 -52t-51.5 -42t-68 -24.5t-88.5 -9.5q-111 0 -174.5 55t-63.5 152q0 44 15 130l68 353h75l-80 -413q-6 -28 -6 -70q0 -79 45 -122t126 -43q101 0 148 66t77 223l68 359h76zM507 924l-147 -185h-40l125 220z
M661 906l-162 -167h-40l144 206z" />
    <glyph glyph-name="uhungarumlaut" unicode="&#x171;" horiz-adv-x="593" 
d="M179 490l-49 -257q-6 -39 -6 -67q0 -54 30 -87.5t79 -33.5q68 0 112.5 46.5t59.5 125.5l52 273h73l-93 -490h-74l14 72q-70 -80 -168 -80q-71 0 -114 47t-43 120q0 52 14 120l40 211h73zM423 751l-147 -185h-40l125 220zM577 733l-162 -167h-40l144 206z" />
    <glyph glyph-name="Uogonek" unicode="&#x172;" horiz-adv-x="721" 
d="M412 -209q-32 -15 -76 -15q-45 0 -74.5 24.5t-29.5 65.5q0 71 99 127h-17q-111 0 -174.5 55t-63.5 152q0 44 15 130l68 353h75l-80 -413q-6 -28 -6 -70q0 -79 45 -122t126 -43q101 0 148 66t77 223l68 359h76l-65 -343q-12 -62 -21 -99t-27 -83.5t-40.5 -74t-58.5 -51
t-84 -32.5q-89 -72 -89 -123q0 -29 18.5 -45t47.5 -16q30 0 51 7z" />
    <glyph glyph-name="uogonek" unicode="&#x173;" horiz-adv-x="593" 
d="M431 -209q-32 -15 -76 -15q-45 0 -74.5 24.5t-29.5 65.5q0 40 32 75t80 59l14 72q-70 -80 -168 -80q-71 0 -114 47t-43 120q0 52 14 120l40 211h73l-49 -257q-6 -39 -6 -67q0 -54 30 -87.5t79 -33.5q68 0 112.5 46.5t59.5 125.5l52 273h73l-93 -490h-26q-89 -72 -89 -123
q0 -29 18.5 -45t47.5 -16q30 0 51 7z" />
    <glyph glyph-name="Wcircumflex" unicode="&#x174;" horiz-adv-x="923" 
d="M76 683h77l93 -528l284 545l118 -545l248 528h57l-343 -700l-118 544l-293 -544zM655 739h-38l-70 98l-102 -98h-41l158 206z" />
    <glyph glyph-name="wcircumflex" unicode="&#x175;" horiz-adv-x="782" 
d="M816 490l-304 -507l-100 378l-227 -378l-134 507h78l92 -379l227 392l100 -392l210 379h58zM576 566h-38l-70 98l-102 -98h-41l158 206z" />
    <glyph glyph-name="Ycircumflex" unicode="&#x176;" horiz-adv-x="570" 
d="M635 683l-315 -379l-58 -304h-75l58 304l-197 379h86l172 -331l260 331h69zM480 739h-38l-70 98l-102 -98h-41l158 206z" />
    <glyph glyph-name="ycircumflex" unicode="&#x177;" horiz-adv-x="517" 
d="M522 490l-467 -724l-61 37q11 9 29.5 27t66.5 74.5t84 115.5l-145 470h78l118 -393l241 393h56zM415 566h-38l-70 98l-102 -98h-41l158 206z" />
    <glyph glyph-name="Ydieresis" unicode="&#x178;" horiz-adv-x="570" 
d="M635 683l-315 -379l-58 -304h-75l58 304l-197 379h86l172 -331l260 331h69zM270 735q-18 0 -30.5 13.5t-12.5 30.5q0 25 15 40t38 15q18 0 30.5 -13.5t12.5 -30.5q0 -25 -15 -40t-38 -15zM444 735q-18 0 -30.5 13.5t-12.5 30.5q0 25 15 40t38 15q18 0 30.5 -13.5
t12.5 -30.5q0 -25 -15 -40t-38 -15z" />
    <glyph glyph-name="Zacute" unicode="&#x179;" horiz-adv-x="578" 
d="M492 0h-529l511 640l-381 -6l8 49h498l-512 -640l413 6zM516 906l-162 -167h-40l143 206z" />
    <glyph glyph-name="zacute" unicode="&#x17a;" horiz-adv-x="454" 
d="M359 0h-400l358 449l-266 -6l8 47h377l-360 -449l291 6zM421 733l-162 -167h-40l143 206z" />
    <glyph glyph-name="Zdotaccent" unicode="&#x17b;" horiz-adv-x="578" 
d="M492 0h-529l511 640l-381 -6l8 49h498l-512 -640l413 6zM351 765q-18 0 -30.5 13.5t-12.5 30.5q0 25 15 40t38 15q18 0 30.5 -13.5t12.5 -30.5q0 -25 -15 -40t-38 -15z" />
    <glyph glyph-name="zdotaccent" unicode="&#x17c;" horiz-adv-x="454" 
d="M359 0h-400l358 449l-266 -6l8 47h377l-360 -449l291 6zM253 592q-18 0 -30.5 13.5t-12.5 30.5q0 25 15 40t38 15q18 0 30.5 -13.5t12.5 -30.5q0 -25 -15 -40t-38 -15z" />
    <glyph glyph-name="Zcaron" unicode="&#x17d;" horiz-adv-x="578" 
d="M492 0h-529l511 640l-381 -6l8 49h498l-512 -640l413 6zM249 923h38l70 -98l102 98h41l-158 -206z" />
    <glyph glyph-name="zcaron" unicode="&#x17e;" horiz-adv-x="454" 
d="M359 0h-400l358 449l-266 -6l8 47h377l-360 -449l291 6zM155 750h38l70 -98l102 98h41l-158 -206z" />
    <glyph glyph-name="florin" unicode="&#x192;" horiz-adv-x="552" 
d="M289 371l-67 -370q-40 -202 -188 -202q-38 0 -74 15t-56 39l48 40q29 -58 82 -58q78 0 110 166l67 370l-101 -1l9 45l100 -1l14 75q40 202 188 202q38 0 74 -15t56 -39l-48 -40q-29 58 -82 58q-78 0 -110 -166l-14 -75l143 1l-9 -45z" />
    <glyph glyph-name="Aringacute" unicode="&#x1fa;" horiz-adv-x="656" 
d="M410 919q45 0 74 -30t29 -73q0 -53 -37.5 -90t-92.5 -39l211 -687h-79l-73 242h-294l-145 -242h-58l426 687q-42 2 -69 31.5t-27 71.5q0 54 39 91.5t96 37.5zM430 285l-86 284l-170 -284h256zM383 719q30 0 53 29t23 73q0 29 -14.5 47.5t-39.5 18.5q-31 0 -54 -29
t-23 -73q0 -30 15 -48t40 -18zM576 1109l-162 -167h-40l143 206z" />
    <glyph glyph-name="aringacute" unicode="&#x1fb;" horiz-adv-x="535" 
d="M442 331q0 -42 -16 -117l-20 -99q-14 -70 1 -115h-74q-11 32 -1 80q-31 -37 -77.5 -62.5t-99.5 -25.5q-70 0 -110.5 34.5t-40.5 97.5q0 164 365 202q9 60 -20 97.5t-83 37.5q-79 0 -153 -84l-42 51q93 70 195 70q90 0 133 -47t43 -120zM366 291q-283 -36 -283 -167
q0 -45 27.5 -65t67.5 -20q52 0 98.5 37t64.5 89q12 43 25 126zM318 778q45 0 74 -30t29 -73q0 -54 -39 -91.5t-97 -37.5q-44 0 -73 30t-29 73q0 54 39 91.5t96 37.5zM291 578q30 0 53 29t23 73q0 29 -14.5 47.5t-39.5 18.5q-31 0 -54 -29t-23 -73q0 -30 15 -48t40 -18z
M460 968l-162 -167h-40l143 206z" />
    <glyph glyph-name="AEacute" unicode="&#x1fc;" horiz-adv-x="884" 
d="M344 0l53 279h-220l-222 -279h-64l557 683h415l-10 -49l-311 6l-53 -273l309 2l-9 -47l-308 2l-54 -281l331 6l-10 -49h-404zM406 323l60 317l-253 -317h193zM688 906l-162 -167h-40l143 206z" />
    <glyph glyph-name="aeacute" unicode="&#x1fd;" horiz-adv-x="883" 
d="M264 498q126 0 162 -92q85 92 196 92q93 0 146.5 -55t53.5 -145q0 -8 -3 -44h-390q-3 -18 -3 -46q0 -89 40 -132t102 -43q44 0 90.5 20.5t80.5 53.5l24 -27q-91 -88 -206 -88q-66 0 -116.5 32.5t-73.5 93.5q-95 -126 -214 -126q-69 0 -110 36t-41 96q0 168 362 168
q17 82 -12.5 125.5t-87.5 43.5q-79 0 -153 -84l-42 51q93 70 195 70zM358 254q-67 0 -117.5 -7.5t-80 -19.5t-48 -29.5t-25 -35t-6.5 -38.5q0 -45 27.5 -65t67.5 -20q52 0 98.5 37t64.5 89q4 14 19 89zM437 292h308q1 7 1 20q0 69 -34.5 109.5t-92.5 40.5q-60 0 -113 -45
t-69 -125zM637 733l-162 -167h-40l143 206z" />
    <glyph glyph-name="Scommaaccent" unicode="&#x218;" 
d="M307 -71l-132 -175h-41l110 206zM528 542l-66 -17q-17 56 -53 90t-89 34q-58 0 -102.5 -37t-44.5 -90q0 -35 23.5 -61.5t58.5 -42t76 -35.5t76 -40.5t58.5 -58t23.5 -86.5q0 -83 -73 -144.5t-175 -61.5q-96 0 -154 54t-68 122l68 18q4 -61 50 -106t110 -45q66 0 115.5 41
t49.5 104q0 43 -32.5 75t-79 53.5t-93 44.5t-79 60.5t-32.5 88.5q0 76 66.5 132.5t161.5 56.5q88 0 141.5 -44.5t62.5 -104.5z" />
    <glyph glyph-name="scommaaccent" unicode="&#x219;" horiz-adv-x="494" 
d="M260 -71l-132 -175h-41l110 206zM423 384l-64 -14q-14 41 -42 66t-69 25q-45 0 -77.5 -24.5t-32.5 -62.5q0 -25 26 -45.5t63 -36.5t74 -33.5t63 -47t26 -68.5q0 -61 -60 -106t-144 -45q-78 0 -126 41t-58 93l66 15q6 -46 41 -78.5t85 -32.5q51 0 87.5 28t36.5 72
q0 26 -26 47t-63 37.5t-74.5 34.5t-63.5 46t-26 64q0 56 55 97.5t133 41.5q73 0 117 -33.5t53 -80.5z" />
    <glyph glyph-name="circumflex" unicode="&#x2c6;" horiz-adv-x="272" 
d="M301 566h-38l-70 98l-102 -98h-41l158 206z" />
    <glyph glyph-name="caron" unicode="&#x2c7;" horiz-adv-x="272" 
d="M82 750h38l70 -98l102 98h41l-158 -206z" />
    <glyph glyph-name="breve" unicode="&#x2d8;" horiz-adv-x="272" 
d="M336 723q-13 -66 -55 -102.5t-102 -36.5q-52 0 -82 30.5t-30 83.5q0 14 1 25h35v-13q0 -29 23 -47.5t56 -18.5q85 0 118 79h36z" />
    <glyph glyph-name="dotaccent" unicode="&#x2d9;" horiz-adv-x="272" 
d="M185 592q-18 0 -30.5 13.5t-12.5 30.5q0 25 15 40t38 15q18 0 30.5 -13.5t12.5 -30.5q0 -25 -15 -40t-38 -15z" />
    <glyph glyph-name="ring" unicode="&#x2da;" horiz-adv-x="272" 
d="M208 798q45 0 74 -30t29 -73q0 -54 -39 -91.5t-97 -37.5q-44 0 -73 30t-29 73q0 54 39 91.5t96 37.5zM181 598q30 0 53 29t23 73q0 29 -14.5 47.5t-39.5 18.5q-31 0 -54 -29t-23 -73q0 -30 15 -48t40 -18z" />
    <glyph glyph-name="ogonek" unicode="&#x2db;" horiz-adv-x="272" 
d="M210 -209q-32 -15 -76 -15q-45 0 -74.5 24.5t-29.5 65.5q0 40 32 75t80 59h48q-89 -72 -89 -123q0 -29 18.5 -45t47.5 -16q30 0 51 7z" />
    <glyph glyph-name="tilde" unicode="&#x2dc;" horiz-adv-x="272" 
d="M115 624q-24 0 -37.5 -14t-16.5 -28l-30 9q11 37 37.5 64.5t68.5 27.5q24 0 65.5 -18.5t68.5 -18.5q24 0 37.5 14t16.5 28l30 -9q-11 -37 -37.5 -64.5t-68.5 -27.5q-25 0 -66.5 18.5t-67.5 18.5z" />
    <glyph glyph-name="hungarumlaut" unicode="&#x2dd;" horiz-adv-x="272" 
d="M270 751l-147 -185h-40l125 220zM424 733l-162 -167h-40l144 206z" />
    <glyph glyph-name="Delta" unicode="&#x394;" horiz-adv-x="586" 
d="M324 671l197 -671h-581zM431 63l-129 439l-251 -439h380z" />
    <glyph glyph-name="Delta" unicode="&#x2206;" horiz-adv-x="586" 
d="M324 671l197 -671h-581zM431 63l-129 439l-251 -439h380z" />
    <glyph glyph-name="Omega" unicode="&#x3a9;" horiz-adv-x="738" 
d="M409 691q136 0 216.5 -93.5t61.5 -233.5q-30 -216 -250 -308h220l-8 -56h-281l9 65q203 101 231 299q17 120 -41 204t-158 84t-181.5 -84t-97.5 -204q-14 -96 23.5 -172.5t123.5 -126.5l-9 -65h-268l7 56h208q-93 44 -135.5 126.5t-28.5 181.5q20 141 121.5 234t236.5 93
z" />
    <glyph glyph-name="Omega" unicode="&#x2126;" horiz-adv-x="738" 
d="M409 691q136 0 216.5 -93.5t61.5 -233.5q-30 -216 -250 -308h220l-8 -56h-281l9 65q203 101 231 299q17 120 -41 204t-158 84t-181.5 -84t-97.5 -204q-14 -96 23.5 -172.5t123.5 -126.5l-9 -65h-268l7 56h208q-93 44 -135.5 126.5t-28.5 181.5q20 141 121.5 234t236.5 93
z" />
    <glyph glyph-name="pi" unicode="&#x3c0;" 
d="M567 454h-67l-86 -454h-73l86 454h-230l-86 -454h-73l86 454h-67l11 56h510z" />
    <glyph glyph-name="Bdotaccent" unicode="&#x1e02;" horiz-adv-x="647" 
d="M117 43h187q74 0 126 49t52 132q0 46 -29.5 76.5t-95.5 30.5h-185zM180 374h158q76 0 125.5 45t49.5 116q0 47 -32.5 76t-94.5 29h-154zM588 528q0 -55 -33 -98.5t-93 -68.5q46 -20 71.5 -60.5t25.5 -91.5q0 -45 -24 -88t-64 -73q-38 -28 -80 -38t-108 -10h-249l131 683
h235q88 0 138 -40.5t50 -114.5zM379 765q-18 0 -30.5 13.5t-12.5 30.5q0 25 15 40t38 15q18 0 30.5 -13.5t12.5 -30.5q0 -25 -15 -40t-38 -15z" />
    <glyph glyph-name="bdotaccent" unicode="&#x1e03;" horiz-adv-x="609" 
d="M91 0h-73l131 683h73l-48 -250q69 65 159 65q93 0 151.5 -59.5t58.5 -152.5q0 -120 -80 -207t-196 -87q-98 0 -162 80zM272 29q78 0 137 75t59 188q0 76 -39 122.5t-104 46.5q-88 0 -140.5 -76.5t-52.5 -199.5q0 -72 38.5 -114t101.5 -42zM376 592q-18 0 -30.5 13.5
t-12.5 30.5q0 25 15 40t38 15q18 0 30.5 -13.5t12.5 -30.5q0 -25 -15 -40t-38 -15z" />
    <glyph glyph-name="Ddotaccent" unicode="&#x1e0a;" horiz-adv-x="716" 
d="M117 43h75q88 0 148 14t108 50q69 52 102.5 130t33.5 160q0 50 -12 90t-28.5 65t-44 42.5t-49.5 26.5t-53.5 13.5t-47.5 5t-40 0.5h-77zM188 0h-154l131 683h172q159 0 234 -60q93 -75 93 -221q0 -47 -10.5 -97.5t-49 -118.5t-101.5 -114q-35 -26 -77 -42t-90.5 -21.5
t-75.5 -7t-72 -1.5zM405 765q-18 0 -30.5 13.5t-12.5 30.5q0 25 15 40t38 15q18 0 30.5 -13.5t12.5 -30.5q0 -25 -15 -40t-38 -15z" />
    <glyph glyph-name="ddotaccent" unicode="&#x1e0b;" horiz-adv-x="609" 
d="M514 683h73l-131 -683h-73l11 57q-69 -65 -159 -65q-93 0 -151.5 59.5t-58.5 152.5q0 120 80 207t196 87q98 0 162 -80zM296 461q-78 0 -137 -75t-59 -188q0 -76 39 -122.5t104 -46.5q88 0 140.5 76.5t52.5 199.5q0 72 -38.5 114t-101.5 42zM330 592q-18 0 -30.5 13.5
t-12.5 30.5q0 25 15 40t38 15q18 0 30.5 -13.5t12.5 -30.5q0 -25 -15 -40t-38 -15z" />
    <glyph glyph-name="Fdotaccent" unicode="&#x1e1e;" horiz-adv-x="564" 
d="M549 634l-317 6l-53 -273l315 2l-9 -47l-314 2l-62 -324h-75l131 683h394zM371 765q-18 0 -30.5 13.5t-12.5 30.5q0 25 15 40t38 15q18 0 30.5 -13.5t12.5 -30.5q0 -25 -15 -40t-38 -15z" />
    <glyph glyph-name="fdotaccent" unicode="&#x1e1f;" horiz-adv-x="344" 
d="M448 636l-46 -39q-29 58 -84 58q-36 0 -67.5 -37.5t-47.5 -128.5l142 1l-8 -45l-142 1l-82 -446h-75l82 446l-102 -1l8 45l102 -1q17 105 68.5 153.5t114.5 48.5q84 0 137 -55zM303 765q-18 0 -30.5 13.5t-12.5 30.5q0 25 15 40t38 15q18 0 30.5 -13.5t12.5 -30.5
q0 -25 -15 -40t-38 -15z" />
    <glyph glyph-name="Hdotaccent" unicode="&#x1e22;" horiz-adv-x="712" 
d="M546 0h-75l63 330h-362l-63 -330h-75l131 683h75l-60 -310h362l60 310h75zM425 765q-18 0 -30.5 13.5t-12.5 30.5q0 25 15 40t38 15q18 0 30.5 -13.5t12.5 -30.5q0 -25 -15 -40t-38 -15z" />
    <glyph glyph-name="hdotaccent" unicode="&#x1e23;" horiz-adv-x="593" 
d="M371 0l49 257q6 39 6 67q0 54 -30 87.5t-79 33.5q-68 0 -112.5 -46.5t-59.5 -125.5l-52 -273h-73l131 683h73l-51 -265q70 80 168 80q71 0 114 -47t43 -120q0 -52 -14 -120l-40 -211h-73zM368 592q-18 0 -30.5 13.5t-12.5 30.5q0 25 15 40t38 15q18 0 30.5 -13.5
t12.5 -30.5q0 -25 -15 -40t-38 -15z" />
    <glyph glyph-name="Mdotaccent" unicode="&#x1e40;" horiz-adv-x="923" 
d="M846 0h-77l-93 528l-284 -545l-118 545l-248 -528h-57l343 700l118 -544l293 544zM519 765q-18 0 -30.5 13.5t-12.5 30.5q0 25 15 40t38 15q18 0 30.5 -13.5t12.5 -30.5q0 -25 -15 -40t-38 -15z" />
    <glyph glyph-name="mdotaccent" unicode="&#x1e41;" horiz-adv-x="899" 
d="M677 0l49 257q12 52 12 91q0 97 -100 97q-58 0 -100.5 -41t-60.5 -109l-56 -295h-73l49 257q12 52 12 91q0 97 -100 97q-63 0 -106 -46.5t-58 -125.5l-52 -273h-73l93 490h74l-14 -72q72 80 171 80q57 0 92.5 -28t44.5 -76q77 104 192 104q67 0 103.5 -37.5t36.5 -101.5
q0 -15 -2.5 -35.5t-5.5 -35.5l-8 -40t-7 -37l-40 -211h-73zM495 592q-18 0 -30.5 13.5t-12.5 30.5q0 25 15 40t38 15q18 0 30.5 -13.5t12.5 -30.5q0 -25 -15 -40t-38 -15z" />
    <glyph glyph-name="Pdotaccent" unicode="&#x1e56;" horiz-adv-x="597" 
d="M498 502q0 77 -47.5 107.5t-131.5 30.5h-90l-56 -308h125q97 0 148.5 44.5t51.5 125.5zM575 503q0 -100 -66 -156.5t-190 -56.5h-154l-53 -290h-75l125 683h183q108 0 169 -44.5t61 -135.5zM366 765q-18 0 -30.5 13.5t-12.5 30.5q0 25 15 40t38 15q18 0 30.5 -13.5
t12.5 -30.5q0 -25 -15 -40t-38 -15z" />
    <glyph glyph-name="pdotaccent" unicode="&#x1e57;" horiz-adv-x="609" 
d="M54 -193h-73l131 683h73l-11 -57q69 65 159 65q93 0 151.5 -59.5t58.5 -152.5q0 -120 -80 -207t-196 -87q-98 0 -162 80zM272 29q78 0 137 75t59 188q0 76 -39 122.5t-104 46.5q-88 0 -140.5 -76.5t-52.5 -199.5q0 -72 38.5 -114t101.5 -42zM354 592q-18 0 -30.5 13.5
t-12.5 30.5q0 25 15 40t38 15q18 0 30.5 -13.5t12.5 -30.5q0 -25 -15 -40t-38 -15z" />
    <glyph glyph-name="Sdotaccent" unicode="&#x1e60;" 
d="M528 542l-66 -17q-17 56 -53 90t-89 34q-58 0 -102.5 -37t-44.5 -90q0 -35 23.5 -61.5t58.5 -42t76 -35.5t76 -40.5t58.5 -58t23.5 -86.5q0 -83 -73 -144.5t-175 -61.5q-96 0 -154 54t-68 122l68 18q4 -61 50 -106t110 -45q66 0 115.5 41t49.5 104q0 43 -32.5 75
t-79 53.5t-93 44.5t-79 60.5t-32.5 88.5q0 76 66.5 132.5t161.5 56.5q88 0 141.5 -44.5t62.5 -104.5zM340 765q-18 0 -30.5 13.5t-12.5 30.5q0 25 15 40t38 15q18 0 30.5 -13.5t12.5 -30.5q0 -25 -15 -40t-38 -15z" />
    <glyph glyph-name="sdotaccent" unicode="&#x1e61;" horiz-adv-x="494" 
d="M423 384l-64 -14q-14 41 -42 66t-69 25q-45 0 -77.5 -24.5t-32.5 -62.5q0 -25 26 -45.5t63 -36.5t74 -33.5t63 -47t26 -68.5q0 -61 -60 -106t-144 -45q-78 0 -126 41t-58 93l66 15q6 -46 41 -78.5t85 -32.5q51 0 87.5 28t36.5 72q0 26 -26 47t-63 37.5t-74.5 34.5
t-63.5 46t-26 64q0 56 55 97.5t133 41.5q73 0 117 -33.5t53 -80.5zM267 592q-18 0 -30.5 13.5t-12.5 30.5q0 25 15 40t38 15q18 0 30.5 -13.5t12.5 -30.5q0 -25 -15 -40t-38 -15z" />
    <glyph glyph-name="Tdotaccent" unicode="&#x1e6a;" horiz-adv-x="521" 
d="M553 636l-198 4l-122 -640h-75l122 640l-200 -4l9 47h473zM340 765q-18 0 -30.5 13.5t-12.5 30.5q0 25 15 40t38 15q18 0 30.5 -13.5t12.5 -30.5q0 -25 -15 -40t-38 -15z" />
    <glyph glyph-name="tdotaccent" unicode="&#x1e6b;" horiz-adv-x="334" 
d="M135 0h-74q-10 55 4 131l60 315l-103 -1l9 45l102 -1l31 161h74l-31 -161l143 1l-9 -45l-142 1l-60 -315q-14 -76 -4 -131zM217 732q-18 0 -30.5 13.5t-12.5 30.5q0 25 15 40t38 15q18 0 30.5 -13.5t12.5 -30.5q0 -25 -15 -40t-38 -15z" />
    <glyph glyph-name="Wgrave" unicode="&#x1e80;" horiz-adv-x="923" 
d="M76 683h77l93 -528l284 545l118 -545l248 528h57l-343 -700l-118 544l-293 -544zM576 739h-40l-148 167l62 39z" />
    <glyph glyph-name="wgrave" unicode="&#x1e81;" horiz-adv-x="782" 
d="M816 490l-304 -507l-100 378l-227 -378l-134 507h78l92 -379l227 392l100 -392l210 379h58zM506 566h-40l-148 167l62 39z" />
    <glyph glyph-name="Wacute" unicode="&#x1e82;" horiz-adv-x="923" 
d="M76 683h77l93 -528l284 545l118 -545l248 528h57l-343 -700l-118 544l-293 -544zM677 906l-162 -167h-40l143 206z" />
    <glyph glyph-name="wacute" unicode="&#x1e83;" horiz-adv-x="782" 
d="M816 490l-304 -507l-100 378l-227 -378l-134 507h78l92 -379l227 392l100 -392l210 379h58zM591 733l-162 -167h-40l143 206z" />
    <glyph glyph-name="Wdieresis" unicode="&#x1e84;" horiz-adv-x="923" 
d="M76 683h77l93 -528l284 545l118 -545l248 528h57l-343 -700l-118 544l-293 -544zM446 765q-18 0 -30.5 13.5t-12.5 30.5q0 25 15 40t38 15q18 0 30.5 -13.5t12.5 -30.5q0 -25 -15 -40t-38 -15zM620 765q-18 0 -30.5 13.5t-12.5 30.5q0 25 15 40t38 15q18 0 30.5 -13.5
t12.5 -30.5q0 -25 -15 -40t-38 -15z" />
    <glyph glyph-name="wdieresis" unicode="&#x1e85;" horiz-adv-x="782" 
d="M816 490l-304 -507l-100 378l-227 -378l-134 507h78l92 -379l227 392l100 -392l210 379h58zM367 592q-18 0 -30.5 13.5t-12.5 30.5q0 25 15 40t38 15q18 0 30.5 -13.5t12.5 -30.5q0 -25 -15 -40t-38 -15zM541 592q-18 0 -30.5 13.5t-12.5 30.5q0 25 15 40t38 15
q18 0 30.5 -13.5t12.5 -30.5q0 -25 -15 -40t-38 -15z" />
    <glyph glyph-name="endash" unicode="&#x2013;" horiz-adv-x="500" 
d="M475 226h-499l10 59h500z" />
    <glyph glyph-name="emdash" unicode="&#x2014;" horiz-adv-x="1000" 
d="M976 226h-999l10 59h1000z" />
    <glyph glyph-name="quoteleft" unicode="&#x2018;" horiz-adv-x="290" 
d="M203 424l-101 242l73 34l73 -276h-45z" />
    <glyph glyph-name="quoteright" unicode="&#x2019;" horiz-adv-x="290" 
d="M290 666l-169 -242h-45l151 276z" />
    <glyph glyph-name="quotesinglbase" unicode="&#x201a;" horiz-adv-x="290" 
d="M157 87l-169 -242h-45l151 276z" />
    <glyph glyph-name="quotedblleft" unicode="&#x201c;" horiz-adv-x="446" 
d="M359 424l-101 242l73 34l73 -276h-45zM212 424l-114 242l73 34l86 -276h-45z" />
    <glyph glyph-name="quotedblright" unicode="&#x201d;" horiz-adv-x="446" 
d="M286 666l-169 -242h-45l151 276zM446 666l-182 -242h-45l164 276z" />
    <glyph glyph-name="quotedblbase" unicode="&#x201e;" horiz-adv-x="446" 
d="M157 87l-169 -242h-45l151 276zM317 87l-182 -242h-45l164 276z" />
    <glyph glyph-name="dagger" unicode="&#x2020;" horiz-adv-x="579" 
d="M524 406h-195l-108 -570h-75l109 570h-194l11 56h194l45 238h75l-46 -238h195z" />
    <glyph glyph-name="daggerdbl" unicode="&#x2021;" horiz-adv-x="579" 
d="M499 277h-194l-84 -441h-75l84 441h-194l11 55h194l24 126h-194l10 56h194l36 186h75l-36 -186h194l-10 -56h-194l-24 -126h194z" />
    <glyph glyph-name="bullet" unicode="&#x2022;" horiz-adv-x="500" 
d="M416 336q0 -69 -49 -117.5t-118 -48.5q-68 0 -117 49t-49 117t49 117t117 49q69 0 118 -48.5t49 -117.5z" />
    <glyph glyph-name="ellipsis" unicode="&#x2026;" horiz-adv-x="1000" 
d="M111 -8q-18 0 -30.5 13.5t-12.5 30.5q0 25 15 40t38 15q18 0 30.5 -13.5t12.5 -30.5q0 -25 -15 -40t-38 -15zM444 -8q-18 0 -30.5 13.5t-12.5 30.5q0 25 15 40t38 15q18 0 30.5 -13.5t12.5 -30.5q0 -25 -15 -40t-38 -15zM777 -8q-18 0 -30.5 13.5t-12.5 30.5q0 25 15 40
t38 15q18 0 30.5 -13.5t12.5 -30.5q0 -25 -15 -40t-38 -15z" />
    <glyph glyph-name="perthousand" unicode="&#x2030;" horiz-adv-x="1132" 
d="M236 674q60 0 99.5 -41t39.5 -99q0 -74 -53 -125t-131 -51q-60 0 -99 41t-39 99q0 74 53 125t130 51zM199 394q44 0 77.5 42t33.5 106q0 44 -22 70t-59 26q-44 0 -78 -42t-34 -106q0 -44 22.5 -70t59.5 -26zM629 674l-440 -682h-47l440 682h47zM580 308q60 0 99.5 -41
t39.5 -99q0 -74 -53 -125t-131 -51q-60 0 -99 41t-39 99q0 74 53 125t130 51zM543 28q44 0 77.5 42t33.5 106q0 44 -22 70t-59 26q-44 0 -78 -42t-34 -106q0 -44 22.5 -70t59.5 -26zM940 308q60 0 99.5 -41t39.5 -99q0 -74 -53 -125t-131 -51q-60 0 -99 41t-39 99
q0 74 53 125t130 51zM903 28q44 0 77.5 42t33.5 106q0 44 -22 70t-59 26q-44 0 -78 -42t-34 -106q0 -44 22.5 -70t59.5 -26z" />
    <glyph glyph-name="guilsinglleft" unicode="&#x2039;" horiz-adv-x="366" 
d="M258 75l-25 -21l-198 202l261 202l21 -25l-179 -181z" />
    <glyph glyph-name="guilsinglright" unicode="&#x203a;" horiz-adv-x="366" 
d="M78 437l25 21l198 -202l-261 -202l-21 25l179 181z" />
    <glyph glyph-name="fraction" unicode="&#x2044;" horiz-adv-x="134" 
d="M309 674l-440 -682h-47l440 682h47z" />
    <glyph glyph-name="fraction" unicode="&#x2215;" horiz-adv-x="134" 
d="M309 674l-440 -682h-47l440 682h47z" />
    <glyph glyph-name="Euro" unicode="&#x20ac;" 
d="M334 35q83 0 165 68l22 -27q-89 -84 -199 -84q-99 0 -155.5 71t-56.5 184h-100l21 49h78q1 21 4 37q1 8 2.5 16t3.5 18t3 16h-86l20 49h81q36 108 111 175t169 67q52 0 98 -19.5t73 -51.5l-51 -47q-54 77 -120 77t-119 -55t-83 -146h271l-20 -49h-264q-7 -30 -9 -50
q-3 -16 -4 -37h241l-21 -49h-221q2 -97 39 -154.5t107 -57.5z" />
    <glyph glyph-name="trademark" unicode="&#x2122;" horiz-adv-x="854" 
d="M773 314h-55l-42 268l-149 -285l-63 284l-125 -267h-39l188 386l65 -284l152 284zM358 650l-114 2l-65 -338h-49l65 338l-116 -2l7 33h279z" />
    <glyph glyph-name="partialdiff" unicode="&#x2202;" 
d="M244 29q69 0 121 68t52 169q0 68 -34 109.5t-92 41.5q-69 0 -121 -68t-52 -169q0 -68 34 -109.5t92 -41.5zM423 411q-23 211 -263 244l28 53q85 -11 148.5 -46.5t99 -87t52 -107.5t16.5 -117q0 -181 -77.5 -269.5t-190.5 -88.5q-85 0 -139 54.5t-54 139.5q0 110 74 189
t182 79q77 0 124 -43z" />
    <glyph glyph-name="product" unicode="&#x220f;" horiz-adv-x="738" 
d="M600 -193h-254l8 43h90l148 777h-338l-148 -777h90l-8 -43h-253l8 43h88l148 777h-89l11 56h666l-11 -56h-89l-148 -777h89z" />
    <glyph glyph-name="summation" unicode="&#x2211;" horiz-adv-x="738" 
d="M562 -193h-586l10 55l332 396l-186 371l10 54h568l-36 -191h-46l25 135h-434l186 -372l-329 -392h451l25 134h46z" />
    <glyph glyph-name="minus" unicode="&#x2212;" horiz-adv-x="600" 
d="M530 219h-492l11 68h492z" />
    <glyph glyph-name="radical" unicode="&#x221a;" horiz-adv-x="666" 
d="M693 744h-139l-289 -758l-111 328h-75l8 43h112l68 -213l240 643h194z" />
    <glyph glyph-name="infinity" unicode="&#x221e;" horiz-adv-x="666" 
d="M288 254q-34 48 -63.5 68.5t-64.5 20.5q-41 0 -68 -27.5t-27 -69.5q0 -36 22.5 -58.5t58.5 -22.5q64 0 142 89zM320 210q-45 -55 -86.5 -79t-88.5 -24q-60 0 -98 38t-38 97q0 68 45.5 113.5t111.5 45.5q88 0 161 -103q45 55 86.5 79t88.5 24q60 0 98 -38t38 -97
q0 -68 -45 -113.5t-112 -45.5q-88 0 -161 103zM359 254q34 -48 63.5 -68.5t64.5 -20.5q41 0 68 27.5t27 69.5q0 36 -22.5 58.5t-58.5 22.5q-64 0 -142 -89z" />
    <glyph glyph-name="integral" unicode="&#x222b;" 
d="M381 646l-138 -721q-12 -62 -39.5 -96.5t-80.5 -34.5q-107 0 -74 154h56q-13 -70 -7.5 -93.5t29.5 -23.5q37 0 50 67l138 721q12 62 39.5 96.5t80.5 34.5q104 0 76 -143h-56q11 62 5 84t-29 22q-37 0 -50 -67z" />
    <glyph glyph-name="approxequal" unicode="&#x2248;" horiz-adv-x="600" 
d="M190 342q-26 0 -47 -18t-28.5 -32t-11.5 -26l-44 9q41 128 150 128q36 0 104 -32.5t105 -32.5q26 0 47 18t28.5 32t11.5 26l44 -9q-43 -134 -150 -134q-37 0 -105 35.5t-104 35.5zM162 174q-26 0 -47 -18t-28.5 -32t-11.5 -26l-44 9q41 128 150 128q36 0 104 -32.5
t105 -32.5q26 0 47 18t28.5 32t11.5 26l44 -9q-43 -134 -150 -134q-37 0 -105 35.5t-104 35.5z" />
    <glyph glyph-name="notequal" unicode="&#x2260;" horiz-adv-x="600" 
d="M512 118h-255l-59 -118h-72l59 118h-165l12 68h187l68 134h-232l12 68h254l59 118h72l-59 -118h166l-12 -68h-188l-68 -134h233z" />
    <glyph glyph-name="lessequal" unicode="&#x2264;" horiz-adv-x="600" 
d="M500 96l-453 202l12 62l530 202l-14 -73l-434 -163l372 -163zM482 0h-492l13 68h492z" />
    <glyph glyph-name="greaterequal" unicode="&#x2265;" horiz-adv-x="600" 
d="M482 0h-492l13 68h492zM98 562l453 -202l-12 -62l-530 -202l14 73l434 163l-372 163z" />
    <glyph glyph-name="lozenge" unicode="&#x25ca;" horiz-adv-x="666" 
d="M580 333l-312 -348l-191 348l312 348zM507 336l-131 246l-226 -252l131 -246z" />
    <glyph glyph-name="apple" horiz-adv-x="782" 
d="M534 691q4 -70 -42 -121.5t-107 -51.5q1 72 41 118t108 55zM696 168q-38 -92 -82.5 -143t-86.5 -51q-21 0 -54 14t-64 14q-36 0 -75.5 -15t-53.5 -15q-45 0 -91 55t-74.5 133t-28.5 146q0 97 52 158t135 61q31 0 72 -15t52 -15q17 0 59.5 16t75.5 16q93 0 145 -71
q-44 -33 -62.5 -65t-18.5 -74q0 -50 26.5 -89.5t73.5 -59.5z" />
    <glyph glyph-name="uni0138" horiz-adv-x="516" 
d="M445 0h-92l-212 252l279 238h71l-279 -213zM93 0h-73l94 490h73z" />
    <glyph glyph-name="numbersign.tnum" 
d="M546 403h-118l-25 -127h109l-2 -57h-117l-42 -219h-60l41 219h-129l-42 -219h-60l41 219h-109l2 57h118l25 127h-109l2 57h117l40 206h60l-39 -206h129l40 206h60l-39 -206h109zM368 403h-130l-25 -127h130z" />
    <glyph glyph-name="dollar.tnum" 
d="M509 515l-60 -15q-25 81 -86 104l-43 -227q28 -12 45.5 -21t40.5 -25t36 -32t22.5 -40.5t9.5 -53.5q0 -75 -65 -129.5t-157 -55.5l-21 -109h-48l21 113q-66 13 -106 57.5t-48 96.5l62 17q2 -44 29.5 -80t70.5 -50l50 259q-34 16 -53.5 27.5t-43 30.5t-34.5 43t-11 54
q0 68 59.5 118.5t143.5 51.5l19 96h48l-19 -100q59 -11 95 -47.5t43 -82.5zM404 189q0 38 -25.5 63.5t-72.5 50.5l-47 -244q58 1 101.5 38t43.5 92zM189 497q0 -34 22.5 -56.5t64.5 -43.5l40 214q-50 -2 -88.5 -35t-38.5 -79z" />
    <glyph glyph-name="one.tnum" 
d="M296 0h-75l121 613l-156 -82l-17 58l260 99z" />
    <glyph glyph-name="two.tnum" 
d="M425 0h-445q193 160 281.5 244.5t125.5 145.5t37 127q0 52 -30 84t-77 32q-93 0 -158 -123l-54 35q84 129 212 129q78 0 130.5 -45.5t52.5 -115.5q0 -66 -31 -121.5t-114.5 -131t-248.5 -194.5l330 6z" />
    <glyph glyph-name="three.tnum" 
d="M222 -8q-132 0 -193 73l57 50q42 -82 136 -82q76 0 123 51.5t47 133.5q0 51 -40.5 80.5t-116.5 29.5q-28 0 -66 -5l10 62q30 -2 45 -2q100 0 147.5 41.5t47.5 106.5q0 47 -31.5 74.5t-72.5 27.5q-86 0 -141 -84l-53 35q82 90 194 90q76 0 128 -43.5t52 -108.5
q0 -54 -35 -99.5t-93 -60.5q50 -14 77 -54t27 -90q0 -98 -69.5 -162t-179.5 -64z" />
    <glyph glyph-name="four.tnum" 
d="M523 187h-105l-32 -187h-75l32 188h-355l517 500l-75 -433h105zM355 255l48 281l-292 -281h244z" />
    <glyph glyph-name="five.tnum" 
d="M402 242q0 159 -140 159q-37 0 -78.5 -12.5t-68.5 -31.5l59 309h335l-14 -67h-278l-33 -170q42 17 100 17q81 0 139 -53.5t58 -150.5q0 -105 -79 -177.5t-182 -72.5q-132 0 -193 73l57 50q42 -82 136 -82q68 0 125 61t57 148z" />
    <glyph glyph-name="six.tnum" 
d="M312 452q88 0 143 -54t55 -138q0 -111 -75.5 -189.5t-187.5 -78.5q-87 0 -142.5 58.5t-55.5 143.5q0 79 32.5 158t85.5 142t112.5 112t120.5 82l54 -42q-70 -33 -142.5 -97.5t-114.5 -130.5q55 34 115 34zM254 31q72 0 126 67t54 166q0 66 -35 107.5t-94 41.5
q-79 0 -129.5 -65.5t-50.5 -167.5q0 -66 35 -107.5t94 -41.5z" />
    <glyph glyph-name="seven.tnum" 
d="M576 666l-415 -666h-82l408 600l-382 -6l14 72h457z" />
    <glyph glyph-name="eight.tnum" 
d="M503 219q0 -47 -17 -86t-44.5 -64.5t-62 -43t-69 -25.5t-66.5 -8q-95 0 -153 48t-58 123q0 68 43 121.5t118 75.5q-36 12 -61.5 44t-25.5 81q0 82 67 135.5t163 53.5q85 0 137.5 -42.5t52.5 -108.5q0 -56 -35 -100.5t-92 -64.5q50 -17 76.5 -53.5t26.5 -85.5zM298 380
q62 0 106 41t44 108q0 46 -29.5 75t-81.5 29q-64 0 -106.5 -44t-42.5 -104q0 -46 29.5 -75.5t80.5 -29.5zM246 33q70 0 123.5 46.5t53.5 124.5q0 55 -35 89t-96 34q-74 0 -126.5 -50.5t-52.5 -120.5q0 -53 36 -88t97 -35z" />
    <glyph glyph-name="nine.tnum" 
d="M272 214q-88 0 -143 54t-55 138q0 111 75.5 189.5t187.5 78.5q87 0 142.5 -58.5t55.5 -143.5q0 -79 -32.5 -158t-85.5 -142t-112.5 -112t-120.5 -82l-54 42q70 33 142.5 97.5t114.5 130.5q-55 -34 -115 -34zM330 635q-72 0 -126 -67t-54 -166q0 -66 35 -107.5t94 -41.5
q79 0 129.5 65.5t50.5 167.5q0 66 -35 107.5t-94 41.5z" />
    <glyph glyph-name="zero.tnum" 
d="M455 440q0 193 -122 193q-55 0 -98 -45.5t-64.5 -113t-32 -130.5t-10.5 -114q0 -196 120 -196q55 0 98 46t65 114t33 132t11 114zM49 231q0 78 17 154t49.5 142t89 106.5t127.5 40.5q98 0 149.5 -64t51.5 -175q0 -78 -17 -154t-49.5 -142t-89 -106.5t-127.5 -40.5
q-98 0 -149.5 64t-51.5 175z" />
    <glyph glyph-name="cent.tnum" 
d="M212 -18l20 105q-75 11 -122 66t-47 148q0 120 78 201t186 87l18 93h48l-18 -94q73 -10 132 -58l-40 -47q-45 53 -100 65l-80 -423q91 3 164 74l24 -27q-86 -83 -196 -88l-19 -102h-48zM138 300q0 -74 28 -116t74 -54l80 420q-73 -8 -127.5 -77t-54.5 -173z" />
    <glyph glyph-name="sterling.tnum" 
d="M555 605l-51 -47l-8 10q-8 11 -12 15l-13.5 13.5t-17.5 14.5t-19 11t-24.5 8.5t-27.5 2.5q-70 0 -112.5 -51t-42.5 -124q0 -22 5 -45t10 -35l5 -12h205l-11 -56h-178q11 -40 6 -82q-12 -94 -99 -161l315 5l-13 -72h-438l13 65l73 1q66 56 76 140q5 51 -10 104h-116l11 56
h84q-15 38 -15 88q0 100 72.5 160t162.5 60q105 0 170 -69z" />
    <glyph glyph-name="yen.tnum" 
d="M75 343h153l-135 323h78l133 -318l237 318h69l-259 -323h153l-9 -49h-177l-16 -85h169l-10 -49h-169l-30 -160h-75l30 160h-169l10 49h169l16 85h-177z" />
    <glyph glyph-name="florin.tnum" 
d="M319 371l-67 -370q-40 -202 -188 -202q-38 0 -74 15t-56 39l48 40q29 -58 82 -58q78 0 110 166l67 370l-101 -1l9 45l100 -1l14 75q40 202 188 202q38 0 74 -15t56 -39l-48 -40q-29 58 -82 58q-78 0 -110 -166l-14 -75l143 1l-9 -45z" />
    <glyph glyph-name="Euro.tnum" 
d="M334 35q83 0 165 68l22 -27q-89 -84 -199 -84q-99 0 -155.5 71t-56.5 184h-100l21 49h78q1 21 4 37q1 8 2.5 16t3.5 18t3 16h-86l20 49h81q36 108 111 175t169 67q52 0 98 -19.5t73 -51.5l-51 -47q-54 77 -120 77t-119 -55t-83 -146h271l-20 -49h-264q-7 -30 -9 -50
q-3 -16 -4 -37h241l-21 -49h-221q2 -97 39 -154.5t107 -57.5z" />
    <glyph glyph-name="endash.tnum" 
d="M558 226h-582l10 59h582z" />
    </font>
</defs>
</svg>
