<?xml version="1.0" standalone="no"?>
<!DOCTYPE svg PUBLIC "-//W3C//DTD SVG 1.1//EN" "http://www.w3.org/Graphics/SVG/1.1/DTD/svg11.dtd" >
<svg>
<metadata>
Created by FontForge 20110222 at Thu Dec  4 04:44:50 2014
 By deploy user
(c)1991 AG Baltia
</metadata>
<defs>
<font id="Optima-Bold" horiz-adv-x="1000" >
  <font-face 
    font-family="Optima"
    font-weight="700"
    font-stretch="normal"
    units-per-em="1000"
    panose-1="0 0 0 0 0 0 0 0 0 0"
    ascent="800"
    descent="-200"
    x-height="480"
    cap-height="681"
    bbox="-20 -264 1031 885"
    underline-thickness="38"
    underline-position="-122"
    unicode-range="U+0020-2122"
  />
<missing-glyph horiz-adv-x="736" 
d="M46 0v736h644v-736h-644zM644 46v644h-552v-644h552z" />
    <glyph glyph-name=".notdef" horiz-adv-x="736" 
d="M46 0v736h644v-736h-644zM644 46v644h-552v-644h552z" />
    <glyph glyph-name=".null" horiz-adv-x="0" 
 />
    <glyph glyph-name="nonmarkingreturn" horiz-adv-x="278" 
 />
    <glyph glyph-name="space" unicode=" " horiz-adv-x="278" 
 />
    <glyph glyph-name="exclam" unicode="!" horiz-adv-x="333" 
d="M86 68q0 33 24.5 57.5t57.5 24.5t57.5 -24.5t24.5 -57.5q0 -34 -24 -58t-58 -24t-58 24t-24 58zM180 221h-28q-11 51 -21 105q-16 88 -32 177q-5 26 -10 59t-5 58q0 35 24 57t59 22q39 0 60 -23t21 -62q0 -18 -10 -75q-6 -33 -15 -79l-21 -114q-6 -31 -11 -58.5
t-11 -66.5z" />
    <glyph glyph-name="quotedbl" unicode="&#x22;" horiz-adv-x="333" 
d="M124 619v-169q1 -5 1 -14q0 -21 -9.5 -33.5t-29.5 -12.5q-40 0 -40 46q1 9 1 14v169q0 44 7 62t32 18q21 0 29.5 -19.5t8.5 -60.5zM287 619v-169q1 -5 1 -14q0 -21 -9.5 -33.5t-29.5 -12.5q-40 0 -40 42q0 11 1 18v169q0 44 8 62t31 18q21 0 29.5 -19.5t8.5 -60.5z" />
    <glyph glyph-name="numbersign" unicode="#" horiz-adv-x="556" 
d="M498 287v-74h-105l-32 -213h-75l32 213h-108l-32 -213h-75l32 213h-103v74h115l16 105h-103v74h114l30 198h75l-30 -198h107l29 198h75l-29 -198h93v-74h-104l-16 -105h94zM345 392h-107l-16 -105h107z" />
    <glyph glyph-name="dollar" unicode="$" horiz-adv-x="556" 
d="M242 36v237q-103 20 -147 56q-58 47 -58 143q0 71 37.5 117t106.5 69q29 9 61 12v80q8 -2 14.5 -2h14.5h11q6 0 18 2v-80q51 0 95 -12.5t81 -41.5q-14 -30 -21.5 -49.5t-15.5 -50.5h-14q-14 42 -47.5 70t-77.5 34v-216q102 -22 152 -61q66 -51 66 -143q0 -90 -65 -152
t-153 -62v-108q-15 3 -32 3h-13q-9 -2 -13 -2v107q-56 0 -106.5 16.5t-92.5 49.5q12 59 25 118h19q14 -52 57 -88.5t98 -45.5zM242 421v199q-40 -5 -63.5 -31.5t-23.5 -68.5q0 -40 24 -65q21 -22 63 -34zM300 257v-221q28 0 61 29q39 35 39 82q0 46 -39 80q-31 27 -61 30z
" />
    <glyph glyph-name="percent" unicode="%" 
d="M292 -30l347 724q16 -2 25 -2h14q10 2 15 2l-348 -724q-16 2 -24 2h-14q-10 -2 -15 -2zM723 -14q-74 0 -118 44t-44 119q0 71 50.5 118.5t122.5 47.5q68 0 115 -39q51 -43 51 -114q0 -80 -50 -128t-127 -48zM728 18q45 0 62 53q10 32 10 91q0 47 -11 77q-16 44 -56 44
q-44 0 -61 -49q-11 -32 -11 -87t9 -83q15 -46 58 -46zM262 341q-74 0 -118 44t-44 119q0 71 50.5 118.5t122.5 47.5q68 0 115 -39q51 -43 51 -114q0 -80 -50 -128t-127 -48zM267 373q45 0 62 53q10 32 10 91q0 47 -11 77q-16 44 -56 44q-44 0 -61 -49q-11 -32 -11 -87t9 -83
q15 -46 58 -46z" />
    <glyph glyph-name="ampersand" unicode="&#x26;" horiz-adv-x="722" 
d="M366 390l11 -14l145 -176q33 38 65 91q27 45 54 99l55 -57q-37 -52 -66 -89q-33 -42 -73 -84q68 -76 137 -152v-13q-20 0 -54 2.5t-41 2.5q-20 0 -54 -2.5t-41 -2.5l-51 71q-42 -37 -100 -60.5t-112 -23.5q-44 0 -77.5 10.5t-66.5 37.5q-56 46 -56 122q0 70 57 127
q45 44 121 79q-29 43 -39 59q-34 57 -34 111q0 68 55 110.5t127 42.5q65 0 110 -27q55 -33 55 -94q0 -41 -24 -78q-29 -45 -103 -92zM337 426q29 23 53.5 60.5t24.5 69.5q0 31 -18.5 54t-49.5 23q-72 0 -72 -73q0 -29 22 -70q11 -20 40 -64zM248 319q-33 -22 -53 -51
q-23 -33 -23 -69q0 -45 32 -86q14 -17 28 -27t37 -19q8 -3 20.5 -5t33.5 -2q26 0 55.5 11.5t46.5 29.5q-42 49 -90 108q-44 55 -87 110z" />
    <glyph glyph-name="quotesingle" unicode="'" horiz-adv-x="278" 
d="M178 619v-169q1 -5 1 -14q0 -21 -9.5 -33.5t-29.5 -12.5q-40 0 -40 46q1 9 1 14v169q0 44 8 62t31 18q21 0 29.5 -19.5t8.5 -60.5z" />
    <glyph glyph-name="parenleft" unicode="(" horiz-adv-x="333" 
d="M274 755l26 -27q-72 -81 -103 -199q-26 -98 -26 -228q0 -123 27 -216q31 -107 101 -189l-27 -26q-107 92 -157 196.5t-50 247.5q0 141 52 248q49 100 157 193z" />
    <glyph glyph-name="parenright" unicode=")" horiz-adv-x="333" 
d="M59 -130l-26 27q72 81 103 199q26 98 26 228q0 123 -27 216q-31 107 -101 189l27 26q107 -92 157 -196.5t50 -247.5q0 -141 -50.5 -244.5t-158.5 -196.5z" />
    <glyph glyph-name="asterisk" unicode="*" horiz-adv-x="444" 
d="M88 615l110 -84l-14 139q12 -2 20.5 -2h18.5h14h11q10 2 14 2l-16 -139l109 86q19 -39 41 -69l-128 -55l128 -53q-13 -20 -21 -35q-4 -8 -19 -36l-110 80l16 -136h-27t-26 1q-16 0 -25 -1l14 136l-106 -84l-29 50l-15 18l132 60l-132 53q24 31 40 69z" />
    <glyph glyph-name="plus" unicode="+" horiz-adv-x="606" 
d="M260 298v207h86v-207h209v-86h-209v-212h-86v212h-209v86h209z" />
    <glyph glyph-name="comma" unicode="," horiz-adv-x="278" 
d="M22 -178l45 185q6 24 12 47.5t16.5 48.5t25 36t39.5 11q28 0 47.5 -18.5t19.5 -43.5q0 -16 -10 -32q-40 -60 -84 -123q-18 -26 -87 -122z" />
    <glyph glyph-name="hyphen" unicode="-" horiz-adv-x="333" 
d="M42 169v107h250v-107h-250z" />
    <glyph glyph-name="period" unicode="." horiz-adv-x="278" 
d="M138 -14q-34 0 -57.5 24.5t-23.5 57.5q0 32 24 57t57 25t58 -24t25 -58t-24 -58t-59 -24z" />
    <glyph glyph-name="slash" unicode="/" horiz-adv-x="389" 
d="M387 755l-301 -884q-21 3 -42 3t-42 -3l301 884q21 -3 42 -3t42 3z" />
    <glyph glyph-name="zero" unicode="0" horiz-adv-x="556" 
d="M281 670q128 0 187 -101q48 -82 48 -219q0 -123 -19 -185t-55 -105q-64 -74 -164 -74q-65 0 -110 25t-76 79t-42 110.5t-11 127.5q0 63 11 126t37 106q66 110 194 110zM187 316q0 -157 14 -211q19 -74 78 -74q52 0 72 78q17 66 17 221q0 165 -18.5 230t-68.5 65
q-55 0 -74.5 -74t-19.5 -235z" />
    <glyph glyph-name="one" unicode="1" horiz-adv-x="556" 
d="M221 -5v565q-57 -33 -117 -60q-8 14 -17.5 25.5t-23.5 24.5v8q68 22 146 56q58 26 142 67l8 -5v-681q-17 2 -25 2q-35 3 -44 3q-22 0 -40 -2t-29 -3z" />
    <glyph glyph-name="two" unicode="2" horiz-adv-x="556" 
d="M487 0h-440v43q90 84 127 124q75 80 115 149q50 87 50 166q0 58 -25 97q-30 46 -86 46q-47 0 -73 -51q-21 -42 -21 -95l-10 -2q-36 44 -78 66q24 64 80.5 95.5t129.5 31.5q99 0 160 -41q71 -48 71 -143q0 -69 -37 -122q-21 -31 -53 -63q-11 -11 -37 -33q-48 -41 -96 -84
q-40 -36 -61 -57l1 -5h128q25 0 77 4t78 4q-2 -22 -3.5 -38t-1.5 -27q0 -21 1.5 -35t3.5 -30z" />
    <glyph glyph-name="three" unicode="3" horiz-adv-x="556" 
d="M179 317v50q18 -2 26 -2q60 0 88 41q24 35 24 100q0 48 -16 78q-22 41 -65 41q-46 0 -70 -36q-18 -27 -27 -83l-14 -1q-22 23 -33 34q-21 22 -34 33q33 55 82 76.5t117 21.5q97 0 153 -41.5t56 -111.5q0 -61 -34 -99q-29 -33 -91 -55l-13 -5q-5 -7 2 -10q22 -4 26 -5
q83 -24 106 -52q30 -37 30 -103q0 -90 -75.5 -146t-181.5 -56q-60 0 -106 16q-56 19 -87 61l33 44t29 42l13 -1q8 -52 32 -82q28 -35 78 -35q52 0 86 47q31 43 31 96q0 97 -52 126q-30 17 -113 17z" />
    <glyph glyph-name="four" unicode="4" horiz-adv-x="556" 
d="M295 162h-261l3.5 28t1.5 20q0 16 -2 28t-3 20q26 36 77 113q41 62 82 122t60 89q35 52 56 88q15 -2 33.5 -3.5t28.5 -1.5q21 0 33.5 1.5t28.5 3.5v-401h83l-3.5 -31.5t-1.5 -21.5q0 -18 2 -31.5t3 -22.5h-83v-167q-17 2 -25 2q-35 3 -44 3q-22 0 -40 -2t-29 -3v167z
M295 269v291l-190 -285l5 -6h185z" />
    <glyph glyph-name="five" unicode="5" horiz-adv-x="556" 
d="M117 664h333q-2 -15 -2 -22q-3 -30 -3 -37q0 -20 2 -35t3 -25h-287l-8 -173l6 -3q43 23 101 23q49 0 84.5 -10t68.5 -38q63 -54 63 -138q0 -50 -23.5 -93.5t-65.5 -73.5q-35 -26 -84 -39.5t-97 -13.5q-50 0 -94 13.5t-82 42.5q15 22 27 46.5t23 55.5h14q12 -47 35 -76
q30 -37 74 -37q65 0 98 53q27 44 27 112q0 59 -34 102q-16 19 -38 30.5t-46 11.5q-25 0 -47 -10.5t-40 -29.5l-24 14z" />
    <glyph glyph-name="six" unicode="6" horiz-adv-x="556" 
d="M420 626l-6 -10q-13 5 -28.5 7t-31.5 2q-34 0 -62 -17t-50 -45t-31 -55q-10 -37 -16 -61q-12 -47 -12 -95l7 -4q46 51 113 51q90 0 147.5 -51t57.5 -141q0 -99 -68 -160t-168 -61q-26 0 -56.5 6.5t-50.5 16.5q-47 24 -75 65t-40.5 89t-12.5 101q0 104 31 193
q37 104 109 160q37 28 81 40.5t94 12.5q30 0 50 -5q9 -20 18 -39zM185 198q0 -68 12 -105q20 -62 73 -62q47 0 71 55q19 43 19 96q0 63 -15 101q-23 58 -76 58q-46 0 -68 -51q-16 -38 -16 -92z" />
    <glyph glyph-name="seven" unicode="7" horiz-adv-x="556" 
d="M66 664h456l7 -19q-70 -119 -120 -210q-62 -113 -114 -218.5t-102 -221.5q-22 2 -38 3.5t-27 1.5q-21 0 -35 -1.5t-30 -3.5q95 144 183 284q93 149 153 257l-333 -9q2 17 3.5 38.5t1.5 30.5q0 22 -1.5 36t-3.5 32z" />
    <glyph glyph-name="eight" unicode="8" horiz-adv-x="556" 
d="M246 336q-32 -15 -47 -66q-11 -38 -11 -84q0 -77 28 -120q23 -35 62 -35q46 0 70 56q19 44 19 97q0 33 -6 65.5t-19 53.5q-25 40 -66 40q-16 0 -30 -7zM377 369v-7q62 -10 100 -57t38 -110q0 -95 -67 -152t-170 -57q-48 0 -90.5 11t-76.5 35.5t-52.5 65t-18.5 84.5
q0 64 39 117t101 63v7q-49 10 -82.5 49t-33.5 89q0 82 68 126q58 37 145 37q50 0 82.5 -7t66.5 -30.5t50 -50t16 -66.5q0 -55 -30.5 -94t-84.5 -53zM201 497q0 -24 3.5 -43.5t13 -36t25.5 -27.5t34 -11q43 0 63 46q15 34 15 83q0 50 -14 78q-19 39 -64 39q-44 0 -63 -45
q-13 -31 -13 -83z" />
    <glyph glyph-name="nine" unicode="9" horiz-adv-x="556" 
d="M97 63l7 7q25 -18 41 -26q26 -13 47 -13q87 0 135 94q39 76 39 170v10l-7 3q-46 -51 -119 -51q-84 0 -139 49q-58 52 -58 135q0 58 13.5 95.5t53.5 77.5q30 29 70 42.5t85 13.5q61 0 109.5 -19t81.5 -63q28 -38 42 -90t14 -105q0 -78 -18 -151t-57 -131t-104 -91.5
t-136 -33.5q-21 0 -30 1t-27 7q-4 2 -11 3.5t-11 13.5t-7 21.5t-14 30.5zM364 458q0 68 -12 105q-20 62 -73 62q-46 0 -70 -55q-18 -42 -18 -95q0 -57 15 -98q23 -62 74 -62q46 0 68 51q16 38 16 92z" />
    <glyph glyph-name="colon" unicode=":" horiz-adv-x="278" 
d="M139 311q-33 0 -57.5 24.5t-24.5 58.5q0 33 24 57t58 24q33 0 57.5 -23.5t24.5 -57.5t-23.5 -58.5t-58.5 -24.5zM139 -14q-34 0 -58 24t-24 58q0 33 24.5 57.5t57.5 24.5t57.5 -24.5t24.5 -57.5q0 -34 -24 -58t-58 -24z" />
    <glyph glyph-name="semicolon" unicode=";" horiz-adv-x="278" 
d="M72 394q0 33 24 57t58 24q33 0 57.5 -23.5t24.5 -57.5t-23.5 -58.5t-58.5 -24.5q-33 0 -57.5 24.5t-24.5 58.5zM22 -178l45 185q6 24 12 47.5t16.5 48.5t25 36t39.5 11q28 0 47.5 -18.5t19.5 -43.5q0 -16 -10 -32q-40 -60 -84 -123q-18 -26 -87 -122z" />
    <glyph glyph-name="less" unicode="&#x3c;" horiz-adv-x="606" 
d="M160 255l398 -183v-84l-509 230v74l509 230v-84z" />
    <glyph glyph-name="equal" unicode="=" horiz-adv-x="606" 
d="M555 396v-86h-504v86h504zM555 200v-86h-504v86h504z" />
    <glyph glyph-name="greater" unicode="&#x3e;" horiz-adv-x="606" 
d="M48 72l398 183l-398 183v84l509 -230v-74l-509 -230v84z" />
    <glyph glyph-name="question" unicode="?" horiz-adv-x="444" 
d="M212 -14q-34 0 -58 24t-24 58q0 33 24.5 57.5t57.5 24.5t57.5 -24.5t24.5 -57.5q0 -34 -24 -58t-58 -24zM308 270l9 -5l-6 -15q-7 -16 -10 -27q-30 -4 -60 -7q-28 0 -54.5 8.5t-46 25t-31 39t-11.5 46.5q0 39 16 68q12 22 44 54l49 54q19 22 25 32q10 17 10 38
q0 31 -21 49t-54 18q-61 0 -88 -53h-13l-3 67q20 16 56 26.5t66 10.5q25 0 41 -1.5t39.5 -8t41.5 -16t34 -28.5q33 -40 33 -86q0 -71 -79 -149t-79 -109q0 -20 14.5 -32.5t35.5 -12.5q9 0 22 4.5t20 9.5z" />
    <glyph glyph-name="at" unicode="@" horiz-adv-x="750" 
d="M437 402q0 58 -44 58q-52 0 -89 -80q-31 -66 -31 -127q0 -28 9 -43.5t34 -15.5q39 0 77 55q44 64 44 153zM466 465l10 39h95l-65 -245q-5 -18 -5 -33q0 -16 4.5 -24t16.5 -8q41 0 81 57q47 67 47 159q0 91 -63 156q-70 73 -188 73q-128 0 -207.5 -82.5t-79.5 -216.5
q0 -136 83 -217t216 -81q69 0 129 35.5t100 95.5h65q-44 -86 -127 -138.5t-178 -52.5q-150 0 -255 99t-105 252q0 155 100.5 260.5t252.5 105.5q137 0 229 -87q88 -84 88 -200q0 -55 -16.5 -103.5t-51 -85.5t-71.5 -59q-47 -28 -85 -28q-34 0 -53 25t-19 60q-29 -42 -49 -57
q-28 -22 -68 -22q-60 0 -94 40t-34 105q0 85 62.5 155.5t145.5 70.5q30 0 56 -16q20 -12 33 -32z" />
    <glyph glyph-name="A" unicode="A" horiz-adv-x="667" 
d="M411 204h-233q-32 -90 -46.5 -132.5t-23.5 -74.5l-47 3l-48 -3l286 693l38 -3l38 3l279 -695q-18 0 -49 2.5t-37 2.5q-18 0 -49 -2.5t-37 -2.5q-22 71 -34 107q-19 58 -37 102zM205 265h183l-89 233z" />
    <glyph glyph-name="B" unicode="B" horiz-adv-x="611" 
d="M229 623v-236h31q28 0 47.5 5t36.5 20q22 19 32.5 46t10.5 58q0 53 -28 82t-79 29q-24 0 -51 -4zM229 329v-271h50q45 0 81.5 35.5t36.5 95.5q0 78 -44 111q-39 29 -124 29zM79 0v681h258q87 0 137 -31q62 -38 62 -120q0 -67 -50 -111q-44 -39 -114 -49v-9q72 -7 117 -38
q63 -44 63 -127q0 -97 -76 -150q-66 -46 -166 -46h-231z" />
    <glyph glyph-name="C" unicode="C" horiz-adv-x="667" 
d="M609 117l13 -6l-22 -86q-43 -22 -94 -32.5t-104 -10.5q-164 0 -268 91q-108 94 -108 246q0 187 117 288q107 92 281 92q53 0 106.5 -12.5t97.5 -36.5q-5 -20 -11.5 -48.5t-11.5 -54.5h-14q-28 41 -73 66.5t-93 25.5q-116 0 -179 -98q-54 -84 -54 -208q0 -132 62 -211.5
t176 -79.5q47 0 95.5 20.5t83.5 54.5z" />
    <glyph glyph-name="D" unicode="D" horiz-adv-x="778" 
d="M85 681h342q150 0 231 -99q71 -87 71 -222q0 -166 -105 -265q-100 -95 -259 -95h-280v681zM235 623v-565h85q114 0 173 63q70 75 70 240q0 136 -62 201q-58 61 -168 61h-98z" />
    <glyph glyph-name="E" unicode="E" horiz-adv-x="500" 
d="M78 681h381q-2 -11 -3.5 -23t-1.5 -20q0 -7 2 -21t3 -22q-51 7 -105.5 10.5t-125.5 3.5v-215h104q39 0 60.5 1.5t62.5 7.5q-2 -11 -3.5 -23t-1.5 -20q0 -7 2 -21t3 -22q-24 3 -59.5 6t-63.5 3h-104v-254q71 0 125.5 3.5t105.5 10.5q-2 -11 -3.5 -23t-1.5 -20q0 -7 2 -21
t3 -22h-381v681z" />
    <glyph glyph-name="F" unicode="F" horiz-adv-x="500" 
d="M228 326v-331q-17 0 -28 1q-43 4 -47 4q-17 0 -44 -2.5t-31 -2.5v686h381q-2 -11 -3.5 -23t-1.5 -20q0 -7 2 -21t3 -22q-67 8 -111 11t-120 3v-215h106q35 0 52.5 1.5t68.5 7.5q-2 -11 -3.5 -23t-1.5 -20q0 -7 2 -21t3 -22q-31 3 -63 6t-59 3h-105z" />
    <glyph glyph-name="G" unicode="G" horiz-adv-x="778" 
d="M708 304v-277q-79 -22 -142 -33.5t-125 -11.5q-171 0 -279 82q-120 91 -120 259q0 179 120 281q112 95 293 95q67 0 126 -14.5t115 -46.5q-22 -50 -28 -101h-14q-34 49 -85.5 75.5t-111.5 26.5q-119 0 -187 -96q-62 -88 -62 -223q0 -130 63 -204t177 -74q37 0 61.5 7
t48.5 21v234q17 0 44 -2.5t31 -2.5q17 0 28 1q43 4 47 4z" />
    <glyph glyph-name="H" unicode="H" horiz-adv-x="778" 
d="M86 -5v686q17 0 44 -2.5t31 -2.5q17 0 28 1q43 4 47 4v-271q35 0 89.5 -2.5t63.5 -2.5q35 0 57 1q88 4 96 4v271q17 0 44 -2.5t31 -2.5q17 0 28 1q43 4 47 4v-686q-17 0 -28 1q-43 4 -47 4q-17 0 -44 -2.5t-31 -2.5v335q-35 0 -57 1q-87 4 -96 4q-35 0 -90 -2.5t-63 -2.5
v-335q-17 0 -28 1q-43 4 -47 4q-17 0 -44 -2.5t-31 -2.5z" />
    <glyph glyph-name="I" unicode="I" horiz-adv-x="333" 
d="M91 -5v686q17 0 44 -2.5t31 -2.5q17 0 28 1q43 4 47 4v-686q-17 0 -28 1q-43 4 -47 4q-17 0 -44 -2.5t-31 -2.5z" />
    <glyph glyph-name="J" unicode="J" horiz-adv-x="333" 
d="M251 681v-515v-27q0 -65 -4 -97q-7 -54 -27 -87q-31 -51 -81 -80q-46 -26 -110 -34l-15 47q56 15 74 72q13 41 13 135v53v533q17 0 44 -2.5t31 -2.5q17 0 28 1q43 4 47 4z" />
    <glyph glyph-name="K" unicode="K" horiz-adv-x="611" 
d="M73 -5v686q17 0 44 -2.5t31 -2.5q17 0 28 1q43 4 47 4v-313q144 167 260 313l31.5 -3.5t22.5 -1.5q17 0 28 1.5t25 3.5v-8l-164 -172l-95 -105l269 -387v-14q-17 0 -28 1q-43 4 -47 4q-17 0 -44 -2.5t-31 -2.5l-227 318v-318q-17 0 -28 1q-43 4 -47 4q-17 0 -44 -2.5
t-31 -2.5z" />
    <glyph glyph-name="L" unicode="L" horiz-adv-x="500" 
d="M230 681v-609q64 0 109.5 3t119.5 11q-2 -11 -3.5 -23t-1.5 -20q0 -7 2 -21t3 -22h-379v681q17 0 44 -2.5t31 -2.5q17 0 28 1q43 4 47 4z" />
    <glyph glyph-name="M" unicode="M" horiz-adv-x="889" 
d="M449 211q42 83 75 147q41 80 79 157q54 110 79 166l24.5 -3.5t17.5 -1.5t21 2t22 3q14 -127 29 -253q23 -198 27 -226q13 -93 32 -207q-15 0 -45 2.5t-38 2.5q-17 0 -45.5 -2.5t-35.5 -2.5q0 95 -15 222.5t-28 243.5q-38 -77 -75.5 -153.5t-74.5 -152.5q-25 -52 -72 -155
q-16 2 -24 2q-4 0 -14 -2q-34 72 -68 143q-43 88 -74 151q-39 78 -77 156q-15 -113 -21 -165q-10 -83 -15.5 -155t-5.5 -135q-16 2 -27.5 3.5t-19.5 1.5q-15 0 -25 -1.5t-21 -3.5q18 98 35 211q10 63 32.5 226t34.5 249q14 -2 24 -3.5t17 -1.5q14 0 24.5 2t17.5 3
q25 -55 74 -156q38 -78 77 -157t79 -157z" />
    <glyph glyph-name="N" unicode="N" horiz-adv-x="778" 
d="M84 -3v684h99q66 -72 143 -154q43 -45 146.5 -157t142.5 -157v468l40 -3l40 3v-686l-85 1q-85 94 -169 189q-88 98 -168 182l-109 114v-484l-40 3z" />
    <glyph glyph-name="O" unicode="O" horiz-adv-x="833" 
d="M799 343q0 -152 -105 -254q-110 -107 -289 -107q-169 0 -269.5 94t-100.5 263q0 155 103 255q108 105 291 105q194 0 292 -120q78 -96 78 -236zM423 639q-107 0 -163 -80q-59 -84 -59 -249q0 -110 48 -183q56 -85 161 -85q109 0 169 97q54 88 54 223q0 111 -48 187
q-57 90 -162 90z" />
    <glyph glyph-name="P" unicode="P" horiz-adv-x="556" 
d="M222 296v-301q-17 0 -28 1q-43 4 -47 4q-17 0 -44 -2.5t-31 -2.5v686h246q214 0 214 -169q0 -125 -87 -175q-71 -41 -223 -41zM222 627v-276q22 0 34 1t32 6q46 13 69 52q20 34 20 84q0 58 -26.5 95.5t-66.5 37.5h-62z" />
    <glyph glyph-name="Q" unicode="Q" horiz-adv-x="833" 
d="M420 639q-118 0 -173 -94q-49 -83 -49 -235q0 -110 48 -183q56 -85 161 -85q103 0 163 88t60 232q0 111 -48 187q-57 90 -162 90zM509 -93l-108 75q-168 0 -267 93q-102 96 -102 264q0 164 115 264q110 96 279 96q166 0 268 -98t102 -258q0 -122 -68.5 -213.5
t-185.5 -129.5q116 -74 259 -152q-73 -15 -140 -55q-48 37 -75 58q-39 30 -77 56z" />
    <glyph glyph-name="R" unicode="R" horiz-adv-x="611" 
d="M75 -5v686h213q69 0 101 -2.5t61 -17.5q87 -46 87 -143q0 -71 -42 -118t-114 -62q39 -68 109 -176q47 -72 68 -105l39 -62q-19 0 -51.5 2.5t-39.5 2.5q-19 0 -51.5 -2.5t-38.5 -2.5l-119 210l-65 111h-7v-321q-17 0 -28 1q-43 4 -47 4q-17 0 -44 -2.5t-31 -2.5zM225 627
v-268q7 -1 13 -1h13q131 0 131 144q0 24 -5 50q-9 47 -46 64q-25 11 -77 11h-29z" />
    <glyph glyph-name="S" unicode="S" horiz-adv-x="500" 
d="M404 552h-15q-15 41 -44 64t-71 23q-56 0 -83 -26.5t-27 -71.5q0 -54 78 -97q142 -78 147 -82q79 -62 79 -160q0 -96 -74 -158t-191 -62q-44 0 -85.5 10.5t-75.5 32.5q12 42 18 68t11 59h19q11 -52 48 -81t90 -29q50 0 83.5 27t33.5 77q0 64 -77 106q-72 38 -143 76
q-78 59 -78 161q0 91 58 148q63 62 173 62q50 0 94.5 -15t63.5 -33q-11 -29 -17 -48z" />
    <glyph glyph-name="T" unicode="T" horiz-adv-x="556" 
d="M356 610v-615q-17 0 -28 1q-43 4 -47 4q-17 0 -44 -2.5t-31 -2.5v615q-53 0 -92.5 -3.5t-93.5 -10.5l3.5 24.5t1.5 18.5q0 14 -2 24.5t-3 17.5h515l-3.5 -24.5t-1.5 -17.5q0 -15 2 -25.5t3 -17.5q-73 9 -88 10q-45 4 -91 4z" />
    <glyph glyph-name="U" unicode="U" horiz-adv-x="778" 
d="M89 273v408q17 0 44 -2.5t31 -2.5q17 0 28 1q43 4 47 4v-284v-45q0 -38 0.5 -75t7.5 -74.5t16.5 -61t35.5 -48.5q46 -43 114 -43q71 0 111 27t67 94q12 29 15 82t3 125v303l40 -3l40 3v-356q0 -110 -14 -161q-22 -81 -92 -129q-38 -28 -87 -40.5t-102 -12.5
q-104 0 -176 35q-87 43 -113 133q-8 27 -12 59.5t-4 63.5z" />
    <glyph glyph-name="V" unicode="V" horiz-adv-x="667" 
d="M371 -5l-24.5 3.5t-17.5 1.5q-15 0 -25.5 -2t-17.5 -3q-38 106 -86 231.5t-89 227.5q-29 72 -93 227q19 0 50.5 -2.5t37.5 -2.5q19 0 50.5 2.5t37.5 2.5q31 -104 84 -247q46 -124 93 -248q45 108 67 164q33 82 63 165q26 72 57 166l46 -3l46 3q-49 -113 -98 -228.5
t-93 -225.5q-47 -118 -88 -232z" />
    <glyph glyph-name="W" unicode="W" 
d="M24 652l-9 29q15 0 45 -2.5t38 -2.5q18 0 47 2.5t35 2.5q32 -135 64.5 -255.5t67.5 -244.5q31 92 59.5 170.5t58.5 161.5q34 97 55 168l50 -3l50 3q20 -75 49 -162.5t57 -170.5q33 -98 53 -167q9 29 52 165q38 121 51 166q21 73 45 169l47 -3l46 3q-65 -177 -123 -346.5
t-110 -339.5q-17 2 -29.5 3.5t-20.5 1.5q-16 0 -29.5 -2t-21.5 -3q-24 88 -47 162t-55 165q-8 24 -58 161q-28 -80 -56.5 -160t-57.5 -160q-48 -137 -59 -168q-17 2 -29.5 3.5t-20.5 1.5q-16 0 -29.5 -2t-21.5 -3q-24 92 -61 220q-30 105 -64.5 216.5t-67.5 220.5z" />
    <glyph glyph-name="X" unicode="X" horiz-adv-x="611" 
d="M587 681l-97 -136l-116 -165l13 -23q49 -89 99 -177q54 -98 97 -185q-19 0 -32 1q-50 4 -55 4q-17 0 -48 -2.5t-38 -2.5q-34 69 -65 128q-45 85 -67 127l-92 -144q-9 -14 -34 -58q-18 -31 -28 -51l-50 3l-50 -3q54 75 111 159q61 90 105 157l-205 368q18 0 50 -2.5
t39 -2.5q19 0 50.5 2.5t38.5 2.5q26 -56 76 -151q24 -46 48 -91q75 121 151 242l49 -3z" />
    <glyph glyph-name="Y" unicode="Y" horiz-adv-x="611" 
d="M233 -5v289q-31 53 -81 147q-122 228 -134 250q19 0 51.5 -2.5t38.5 -2.5q19 0 51.5 2.5t38.5 2.5l85 -178q25 -53 37 -75q19 -36 26 -45q26 32 75 134q23 47 75 164l49 -3l48 3l-72 -126l-72 -124q-31 -56 -66 -127v-309q-17 0 -28 1q-43 4 -47 4q-17 0 -44 -2.5
t-31 -2.5z" />
    <glyph glyph-name="Z" unicode="Z" horiz-adv-x="611" 
d="M586 0h-562v17q90 139 181 288t173 291v13q-66 0 -132 -3q-176 -8 -181 -8l3.5 24.5t1.5 17.5q0 13 -1.5 21.5t-3.5 19.5h522v-17q-57 -87 -120 -191q-53 -87 -115 -195l-112 -196v-10q72 0 191 5.5t155 5.5l-3.5 -24.5t-1.5 -16.5q0 -14 2 -24.5t3 -17.5z" />
    <glyph glyph-name="bracketleft" unicode="[" horiz-adv-x="333" 
d="M83 -130v885h210v-55l-110 5v-785l110 5v-55h-210z" />
    <glyph glyph-name="backslash" unicode="\" horiz-adv-x="520" 
d="M124 755l372 -755h-35.5t-34.5 1q-20 0 -30 -1l-372 755q18 0 35.5 -0.5t34.5 -0.5h19q7 1 11 1z" />
    <glyph glyph-name="bracketright" unicode="]" horiz-adv-x="333" 
d="M250 755v-885h-210v55l110 -5v785l-110 -5v55h210z" />
    <glyph glyph-name="asciicircum" unicode="^" horiz-adv-x="606" 
d="M147 278h-95l206 403h90l206 -403h-95l-156 294z" />
    <glyph glyph-name="underscore" unicode="_" horiz-adv-x="500" 
d="M500 -160h-500v38h500v-38z" />
    <glyph glyph-name="grave" unicode="`" horiz-adv-x="333" 
d="M118 694l129 -149h-56l-131 81q-30 20 -34 23q-18 16 -18 37q0 19 12.5 31.5t31.5 12.5q22 0 35.5 -8t30.5 -28z" />
    <glyph glyph-name="a" unicode="a" horiz-adv-x="500" 
d="M295 160v97q-30 -11 -48 -17q-33 -12 -51 -26.5t-25 -34.5t-7 -48q0 -34 12.5 -57t42.5 -23q42 0 61 35q15 28 15 74zM433 355v-272q0 -28 10.5 -37.5t40.5 -9.5v-23q-19 -9 -45.5 -18t-44.5 -9q-34 0 -60.5 19.5t-38.5 53.5q-20 -35 -54 -54t-74 -19q-64 0 -102 33
q-41 36 -41 99q0 68 44 101q36 27 139 52q23 6 37 10q22 7 36 16q8 8 11.5 17t3.5 22q0 35 -29.5 61.5t-65.5 26.5q-43 0 -83 -24q-33 -20 -39 -38h-7l-13 60q34 32 84.5 49.5t100.5 17.5q75 0 126 -29q64 -36 64 -105z" />
    <glyph glyph-name="b" unicode="b" horiz-adv-x="556" 
d="M192 234q0 -84 10 -124q20 -79 78 -79q46 0 70.5 55t24.5 151q0 78 -11 116q-20 71 -78 71t-80 -71q-14 -44 -14 -119zM54 0v755q17 -2 38.5 -3.5t30.5 -1.5q22 0 40 2t29 3v-345q20 37 55.5 58t78.5 21q93 0 148 -73q49 -65 49 -162q0 -55 -12 -100q-15 -55 -45 -90
q-66 -78 -169 -78q-42 0 -78.5 18t-58.5 52q-25 -14 -45 -28t-41 -28h-20z" />
    <glyph glyph-name="c" unicode="c" horiz-adv-x="500" 
d="M480 444l-38 -104h-24q-6 45 -31 73q-28 31 -71 31q-63 0 -97 -70q-26 -54 -26 -126q0 -94 36.5 -145.5t115.5 -51.5q30 0 57.5 12.5t46.5 34.5l17 -14l-24 -60q-18 -16 -61 -27t-74 -11q-119 0 -189 62q-73 65 -73 181q0 120 72 190t191 70q48 0 92.5 -11t79.5 -34z" />
    <glyph glyph-name="d" unicode="d" horiz-adv-x="556" 
d="M498 755v-760l-38.5 3.5t-27.5 1.5q-23 0 -39.5 -2t-27.5 -3v88q-35 -97 -137 -97q-103 0 -154 77q-43 65 -43 174q0 104 47 174q52 78 146 78q47 0 81 -17t55 -55v338q17 -2 38.5 -3.5t30.5 -1.5q22 0 40 2t29 3zM275 424q-56 0 -80 -71q-16 -48 -16 -119t13 -113
q22 -70 75 -70q57 0 81 73q16 48 16 121q0 68 -14 111q-22 68 -75 68z" />
    <glyph glyph-name="e" unicode="e" horiz-adv-x="500" 
d="M183 285h148q0 62 -10 99q-16 60 -56 60q-48 0 -68 -59q-14 -41 -14 -100zM469 237h-286q0 -87 29 -132q34 -54 110 -54q31 0 61 12t56 33l12 -9l-22 -56q-64 -45 -143 -45q-123 0 -187 69t-64 194q0 107 61.5 173.5t167.5 66.5q111 0 161 -72q44 -63 44 -180z" />
    <glyph glyph-name="f" unicode="f" horiz-adv-x="315" 
d="M83 416h-74q2 10 2 31v12q0 5 -2 21h74q7 48 18.5 88t33.5 78q32 56 69 82t90 26h19t29 -4q-3 -17 -4 -43.5t-1 -30.5v-27.5t1 -25.5l-13 -5q-24 12 -45.5 20t-42.5 8q-22 0 -33.5 -1.5t-21.5 -11.5l-6 -6q-6 -7 -6 -15q0 -18 17 -65q12 -34 27 -67h101q-1 -9 -1.5 -18.5
t-0.5 -13.5q0 -8 2 -32h-94v-421q-17 2 -25 2q-35 3 -44 3q-22 0 -40 -2t-29 -3v421z" />
    <glyph glyph-name="g" unicode="g" horiz-adv-x="500" 
d="M123 -74q-3 -7 -4 -17t-1 -20q0 -55 41 -85q37 -27 93 -27q54 0 88.5 33.5t34.5 77.5q0 63 -46 84q-29 13 -102 13q-44 0 -65 -9q-30 -13 -39 -50zM481 486l-1 -46l-90 3q53 -45 53 -112q0 -81 -60 -124q-56 -40 -151 -40h-17q-20 0 -27 -7.5t-9.5 -13.5t-2.5 -12
q0 -28 22 -40.5t59 -12.5l86 -3q78 0 114 -36q32 -32 32 -93q0 -103 -82 -161q-73 -52 -181 -52q-77 0 -130 27q-69 35 -69 106q0 40 22 69t60 43l15 9l-7 8q-49 17 -49 74q0 32 25.5 62.5t52.5 37.5l15 4q-127 30 -127 160q0 80 59.5 116.5t164.5 36.5l102 -3h121zM174 319
q0 -58 19 -88q16 -26 45 -26q41 0 56 49q9 29 9 84q0 44 -10 72q-15 42 -51 42q-42 0 -58 -49q-10 -30 -10 -84z" />
    <glyph glyph-name="h" unicode="h" horiz-adv-x="556" 
d="M193 755v-344q29 33 67 54q42 24 81 24q70 0 117 -46q26 -25 34 -54t8 -73v-321q-17 2 -25 2q-35 3 -44 3q-22 0 -40 -2t-29 -3v249q0 81 -14 115q-19 46 -68 46q-60 0 -78 -66q-9 -32 -9 -114v-230q-17 2 -25 2q-35 3 -44 3q-22 0 -40 -2t-29 -3v760q17 -2 38.5 -3.5
t30.5 -1.5q22 0 40 2t29 3z" />
    <glyph glyph-name="i" unicode="i" horiz-adv-x="278" 
d="M70 -5v485q17 -2 38.5 -3.5t30.5 -1.5q22 0 40 2t29 3v-485q-17 2 -25 2q-35 3 -44 3q-22 0 -40 -2t-29 -3zM60 663q0 31 23 55t55 24t56 -23t24 -56q0 -32 -23.5 -55.5t-56.5 -23.5t-55.5 23.5t-22.5 55.5z" />
    <glyph glyph-name="j" unicode="j" horiz-adv-x="278" 
d="M209 480v-488q0 -51 -16 -83.5t-59 -65.5q-29 -23 -62 -35.5t-69 -12.5l-11 34q49 15 66 53q13 30 13 96v502q17 -2 38.5 -3.5t30.5 -1.5q22 0 40 2t29 3zM137 584q-32 0 -54 23t-22 54q0 34 21.5 57.5t54.5 23.5q36 0 59 -22t23 -59q0 -33 -24 -55t-58 -22z" />
    <glyph glyph-name="k" unicode="k" horiz-adv-x="500" 
d="M59 -5v760q17 -2 38.5 -3.5t30.5 -1.5q22 0 40 2t29 3v-489q3 -3 9 -1q43 43 96 104q63 73 96 111l24.5 -3.5t18.5 -1.5q14 0 24.5 2t17.5 3v-7q-24 -30 -61 -68q-101 -102 -106 -108l80 -128q28 -44 49 -80q25 -41 49 -86v-8q-16 0 -43.5 2.5t-32.5 2.5
q-16 0 -43.5 -2.5t-32.5 -2.5q-29 56 -55 100q-34 58 -62 100q-6 9 -12 18.5t-16 14.5v-233q-17 2 -25 2q-35 3 -44 3q-22 0 -40 -2t-29 -3z" />
    <glyph glyph-name="l" unicode="l" horiz-adv-x="278" 
d="M208 755v-760q-17 2 -25 2q-35 3 -44 3q-22 0 -40 -2t-29 -3v760q17 -2 38.5 -3.5t30.5 -1.5q22 0 40 2t29 3z" />
    <glyph glyph-name="m" unicode="m" horiz-adv-x="833" 
d="M53 -5v485q17 -2 38.5 -3.5t30.5 -1.5q22 0 40 2t29 3v-75q22 37 62.5 60.5t84.5 23.5q47 0 82 -23.5t51 -67.5q28 42 64 65q41 26 88 26q83 0 121 -47q35 -43 35 -128v-319q-17 2 -25 2q-35 3 -44 3q-22 0 -40 -2t-29 -3v271q0 83 -18.5 111t-54.5 28q-49 0 -68 -30
q-15 -24 -15 -77v-303q-17 2 -25 2q-35 3 -44 3q-22 0 -40 -2t-29 -3v271q0 83 -18.5 111t-54.5 28q-47 0 -67 -38q-16 -30 -16 -80v-292q-17 2 -25 2q-35 3 -44 3q-22 0 -40 -2t-29 -3z" />
    <glyph glyph-name="n" unicode="n" horiz-adv-x="556" 
d="M55 -5v485q16 -2 36.5 -3.5t30.5 -1.5q22 0 38.5 2t27.5 3v-74q33 38 68 59q41 24 86 24q89 0 126 -55q32 -47 32 -146v-293q-17 2 -25 2q-35 3 -44 3q-22 0 -40 -2t-29 -3v249q0 81 -14 115q-19 46 -68 46q-57 0 -76 -66q-11 -38 -11 -114v-230q-17 2 -25 2q-35 3 -44 3
q-22 0 -40 -2t-29 -3z" />
    <glyph glyph-name="o" unicode="o" horiz-adv-x="556" 
d="M276 -14q-111 0 -177 65t-66 176q0 120 64.5 191t179.5 71q114 0 180 -64t66 -176q0 -117 -64 -188q-68 -75 -183 -75zM283 444q-56 0 -81 -62q-21 -53 -21 -152q0 -78 14 -123q23 -76 81 -76q53 0 78 75q21 62 21 159q0 81 -20 126q-24 53 -72 53z" />
    <glyph glyph-name="p" unicode="p" horiz-adv-x="556" 
d="M282 51q46 5 69.5 54t23.5 130q0 93 -18 137q-21 52 -69 52q-57 0 -81 -73q-16 -49 -16 -121q0 -69 14 -112q22 -67 77 -67zM56 -259v739q16 -2 36.5 -3.5t30.5 -1.5q22 0 38.5 2t27.5 3v-88q18 46 52.5 71.5t84.5 25.5q100 0 152 -74q45 -64 45 -169q0 -127 -61 -197
q-55 -63 -139 -63q-47 0 -77.5 19.5t-51.5 52.5v-317q-17 2 -25 2q-35 3 -44 3q-22 0 -40 -2t-29 -3z" />
    <glyph glyph-name="q" unicode="q" horiz-adv-x="556" 
d="M370 392v88q16 -2 36.5 -3.5t30.5 -1.5q22 0 38.5 2t27.5 3v-739q-17 2 -25 2q-35 3 -44 3q-22 0 -40 -2t-29 -3v317q-19 -30 -48 -49q-36 -23 -81 -23q-92 0 -146 67t-54 179q0 119 45 185q49 72 145 72q104 0 144 -97zM184 243q0 -17 0.5 -26.5t3.5 -43.5q0 -43 22 -79
q26 -43 67 -43q54 0 76 65q15 45 15 112q0 73 -15 121q-24 75 -82 75q-53 0 -74 -68q-13 -42 -13 -113z" />
    <glyph glyph-name="r" unicode="r" horiz-adv-x="389" 
d="M67 -5v485q17 -2 38.5 -3.5t30.5 -1.5q22 0 40 2t29 3v-124q18 62 52 94q42 39 111 39q-3 -26 -4 -64.5t-1 -71.5l-9 -8q-9 7 -23 10t-28 3q-34 0 -58.5 -17.5t-33.5 -48.5q-4 -11 -5 -29.5t-1 -43.5v-43v-181q-17 2 -25 2q-35 3 -44 3q-22 0 -40 -2t-29 -3z" />
    <glyph glyph-name="s" unicode="s" horiz-adv-x="389" 
d="M46 122h25q14 -39 44 -62t70 -23q28 0 52.5 17.5t24.5 43.5q0 37 -59 63q-99 44 -111 52q-61 43 -61 117t50 116.5t122 42.5q38 0 77 -12.5t68 -34.5l-24 -88h-28q-6 34 -33.5 59t-61.5 25q-30 0 -52 -14.5t-22 -43.5q0 -37 61 -62q97 -39 113 -50q61 -42 61 -122
q0 -71 -51.5 -115.5t-141.5 -44.5q-78 0 -138 41z" />
    <glyph glyph-name="t" unicode="t" horiz-adv-x="333" 
d="M222 416v-285q0 -49 8.5 -69.5t40.5 -20.5q19 0 44 7v-39q-61 -23 -104 -23q-72 0 -102 46q-25 38 -25 116v268h-68q2 9 2 18v14v11v10q-2 7 -2 11h68v113q25 10 65 28t73 34v-175h85q-1 -9 -1.5 -18.5t-0.5 -13.5v-15q2 -12 2 -17h-85z" />
    <glyph glyph-name="u" unicode="u" horiz-adv-x="556" 
d="M496 480v-485l-38.5 3.5t-27.5 1.5q-23 0 -39.5 -2t-27.5 -3v73q-42 -45 -67 -60q-36 -22 -85 -22q-42 0 -76.5 14.5t-57.5 47.5q-15 21 -20.5 51t-5.5 65v39v277q17 -2 38.5 -3.5t30.5 -1.5q22 0 40 2t29 3v-276q0 -32 1.5 -49.5t9.5 -33.5q10 -25 27.5 -38.5
t43.5 -13.5q57 0 76 51q11 30 11 99v261q17 -2 38.5 -3.5t30.5 -1.5q22 0 40 2t29 3z" />
    <glyph glyph-name="v" unicode="v" horiz-adv-x="500" 
d="M170 480l112 -347q32 86 63 172q35 98 59 175l40 -3l39 3q1 -6 -2.5 -13.5t-4.5 -10.5q-13 -27 -32 -72q-10 -23 -19 -45l-68 -168q-37 -94 -63 -176q-17 2 -29.5 3.5t-21.5 1.5q-16 0 -29.5 -2t-21.5 -3q-18 53 -56 161q-43 124 -57 161q-21 56 -63 163q17 0 44.5 -2.5
t32.5 -2.5q17 0 28 1q44 4 49 4z" />
    <glyph glyph-name="w" unicode="w" horiz-adv-x="778" 
d="M164 480l100 -343q35 107 54 170q23 77 48 173q10 -1 29.5 -3t26.5 -2q19 0 30.5 1.5t25.5 3.5l102 -343q56 166 102 343l40 -3l39 3q-49 -125 -87 -234q-48 -136 -81 -251l-31.5 3.5t-21.5 1.5q-18 0 -31.5 -2t-22.5 -3l-101 331q-42 -130 -64 -200.5t-39 -130.5
l-31.5 3.5t-22.5 1.5q-19 0 -32.5 -2t-22.5 -3q-36 122 -48 162q-21 69 -52 162q-27 80 -56 161q15 0 41 -2.5t32 -2.5q14 0 41 2.5t33 2.5z" />
    <glyph glyph-name="x" unicode="x" horiz-adv-x="500" 
d="M312 -5l-96 174q-13 -20 -55 -84q-37 -57 -56 -88l-40 3l-40 -3l159 221q-41 73 -94 161q-3 5 -61 101q17 0 46 -2.5t35 -2.5q18 0 47 2.5t35 2.5q21 -39 43.5 -80.5t42.5 -76.5q25 36 53 77q23 34 51 80l45 -3l45 3q-44 -53 -85 -105q-36 -46 -78 -101l55 -94
q55 -93 111 -185q-17 0 -46 2.5t-36 2.5q-17 0 -46 -2.5t-35 -2.5z" />
    <glyph glyph-name="y" unicode="y" horiz-adv-x="500" 
d="M94 -259l127 258l-202 481q16 0 43.5 -2.5t32.5 -2.5q16 0 43.5 2.5t32.5 2.5q29 -81 58 -157q23 -59 62 -154l38 102q19 51 39 103t37 106l41 -3l41 3l-101 -229q-24 -54 -71 -165.5t-71 -171.5q-31 -77 -66 -173l-42 3z" />
    <glyph glyph-name="z" unicode="z" horiz-adv-x="500" 
d="M470 480v-39l-88 -124q-70 -99 -90 -128q-49 -71 -87 -131q57 0 115 3q135 7 142 7q-2 -12 -3.5 -20t-1.5 -14q0 -5 1.5 -14t3.5 -20h-432v41q68 94 133 189q60 87 129 192q-55 0 -130 -5t-100 -5q2 12 3.5 20t1.5 14q0 10 -2 21q-3 9 -3 13h408z" />
    <glyph glyph-name="braceleft" unicode="{" horiz-adv-x="333" 
d="M116 427v188q0 41 6 61q10 33 37 50.5t58.5 23t70.5 5.5h20q-54 -14 -73 -41.5t-19 -84.5v-185q0 -59 -19 -87q-23 -33 -82 -47q61 -13 83 -49q18 -29 18 -91v-175q0 -54 20 -83.5t72 -41.5q-110 0 -148 27q-44 31 -44 128v167q0 55 -16 78q-19 27 -75 40q21 5 37.5 13.5
t29.5 23t18.5 30.5t5.5 50z" />
    <glyph glyph-name="bar" unicode="|" horiz-adv-x="606" 
d="M260 0v755h86v-755h-86z" />
    <glyph glyph-name="braceright" unicode="}" horiz-adv-x="333" 
d="M217 598v-166q0 -55 17.5 -80t73.5 -37q-21 -5 -37.5 -13.5t-31.5 -25.5t-18.5 -33.5t-3.5 -44.5v-188q0 -41 -6 -61q-10 -33 -39 -51.5t-69 -24.5q-22 -3 -78 -3q54 13 73 40.5t19 84.5v186q0 59 20.5 89.5t80.5 44.5q-61 13 -83 48q-18 29 -18 92v175q0 53 -20 83
t-72 42q110 0 148 -27q44 -32 44 -130z" />
    <glyph glyph-name="asciitilde" unicode="~" horiz-adv-x="606" 
d="M507 349l48 -55q-28 -51 -57 -77q-39 -36 -87 -36q-33 0 -88 24q-23 10 -44 19t-43.5 17.5t-40.5 8.5q-31 0 -58 -30q-14 -16 -38 -58l-48 55q38 70 75 97q32 23 70 23t117 -34.5t100 -34.5q29 0 56 27q19 19 38 54z" />
    <glyph glyph-name="c128" 
 />
    <glyph glyph-name="c129" 
 />
    <glyph glyph-name="quotesinglbase" unicode="&#x201a;" 
 />
    <glyph glyph-name="florin" unicode="&#x192;" 
 />
    <glyph glyph-name="quotedblbase" unicode="&#x201e;" 
 />
    <glyph glyph-name="ellipsis" unicode="&#x2026;" 
d="M166 -14q-34 0 -57.5 24.5t-23.5 57.5q0 32 24 57t57 25t58 -24t25 -58t-24 -58t-59 -24zM499 -14q-34 0 -57.5 24.5t-23.5 57.5q0 32 24 57t57 25t58 -24t25 -58t-24 -58t-59 -24zM832 -14q-34 0 -57.5 24.5t-23.5 57.5q0 32 24 57t57 25t58 -24t25 -58t-24 -58t-59 -24
z" />
    <glyph glyph-name="dagger" unicode="&#x2020;" horiz-adv-x="556" 
d="M220 -5v379q-27 0 -82 -3t-83 -3l3.5 31.5t1.5 22.5q0 18 -2 31.5t-3 22.5q27 0 82 -3t83 -3v211q14 -2 32 -3.5t26 -1.5q19 0 34 2t24 3v-211q27 0 82 3t83 3l-3.5 -31.5t-1.5 -22.5q0 -18 2 -31.5t3 -22.5q-27 0 -82 3t-83 3v-379q-14 2 -21 2q-29 3 -37 3
q-19 0 -34 -2t-24 -3z" />
    <glyph glyph-name="daggerdbl" unicode="&#x2021;" 
 />
    <glyph glyph-name="circumflex" unicode="&#x2c6;" 
 />
    <glyph glyph-name="perthousand" unicode="&#x2030;" 
 />
    <glyph glyph-name="Scaron" unicode="&#x160;" 
 />
    <glyph glyph-name="guilsinglleft" unicode="&#x2039;" 
 />
    <glyph glyph-name="OE" unicode="&#x152;" 
 />
    <glyph glyph-name="c141" 
 />
    <glyph glyph-name="c142" horiz-adv-x="278" 
 />
    <glyph glyph-name="c143" 
 />
    <glyph glyph-name="c144" horiz-adv-x="556" 
d="M194 479v-304q50 63 104 144q41 62 100 160l52 -3l50 3v-483q-11 0 -38.5 2t-30.5 2q-17 0 -26 -0.5t-43 -3.5v308q-58 -74 -112 -156q-48 -73 -92 -152q-5 0 -22 2t-28 2q-18 0 -32.5 -2t-19.5 -2v483q29 -2 43 -3t26 -1q29 0 43 1q18 3 26 3z" />
    <glyph glyph-name="quoteleft" unicode="&#x2018;" horiz-adv-x="278" 
d="M242 694l-45 -185q-6 -25 -12 -48t-16.5 -48t-25 -36t-39.5 -11q-28 0 -47.5 18.5t-19.5 43.5q0 16 10 32q40 60 84 123q18 26 87 122z" />
    <glyph glyph-name="quoteright" unicode="&#x2019;" horiz-adv-x="278" 
d="M36 382l45 185q6 24 12 47.5t16.5 48.5t25 36t39.5 11q28 0 47.5 -18.5t19.5 -43.5q0 -16 -10 -32q-40 -60 -84 -123q-18 -26 -87 -122z" />
    <glyph glyph-name="quotedblleft" unicode="&#x201c;" horiz-adv-x="500" 
d="M249 694l-45 -185q-6 -25 -12 -48t-16.5 -48t-25 -36t-39.5 -11q-28 0 -47.5 18.5t-19.5 43.5q0 16 10 32q40 60 84 123q18 26 87 122zM456 694l-45 -185q-6 -25 -12 -48t-16.5 -48t-25 -36t-39.5 -11q-28 0 -47.5 18.5t-19.5 43.5q0 16 10 32q40 60 84 123q18 26 87 122
z" />
    <glyph glyph-name="quotedblright" unicode="&#x201d;" horiz-adv-x="500" 
d="M251 382l45 185q6 24 12 47.5t16.5 48.5t25 36t39.5 11q28 0 47.5 -18.5t19.5 -43.5q0 -16 -10 -32q-40 -60 -84 -123q-18 -26 -87 -122zM44 382l45 185q6 24 12 47.5t16.5 48.5t25 36t39.5 11q28 0 47.5 -18.5t19.5 -43.5q0 -16 -10 -32q-40 -60 -84 -123
q-18 -26 -87 -122z" />
    <glyph glyph-name="bullet" unicode="&#x2022;" 
 />
    <glyph glyph-name="endash" unicode="&#x2013;" horiz-adv-x="500" 
d="M0 181v83h500v-83h-500z" />
    <glyph glyph-name="emdash" unicode="&#x2014;" 
d="M0 181v83h1000v-83h-1000z" />
    <glyph glyph-name="tilde" unicode="&#x2dc;" 
 />
    <glyph glyph-name="trademark" unicode="&#x2122;" horiz-adv-x="975" 
d="M684 402l68 132q41 80 70 147l25 -3l26 3q21 -188 25 -219q13 -108 27 -188l-49 3l-48 -3q0 62 -9 134.5t-17 141.5q-48 -96 -67 -135q-32 -65 -65 -138h-22q-27 57 -62 129q-57 116 -68 138q-17 -124 -21 -173.5t-4 -96.5l-28 3l-27 -3q13 71 30.5 192.5t29.5 214.5
l25 -3l25 3q19 -41 50 -106t86 -173zM249 639v-365l-44 3l-45 -3v365q-34 0 -52.5 -1.5t-57.5 -6.5l3 25l-3 25h305l-3 -25l3 -25q-27 3 -59 5.5t-47 2.5z" />
    <glyph glyph-name="scaron" unicode="&#x161;" 
 />
    <glyph glyph-name="guilsinglright" unicode="&#x203a;" 
 />
    <glyph glyph-name="oe" unicode="&#x153;" 
 />
    <glyph glyph-name="c157" 
 />
    <glyph glyph-name="c158" 
 />
    <glyph glyph-name="Ydieresis" unicode="&#x178;" 
 />
    <glyph glyph-name="nonbreakingspace" unicode="&#xa0;" horiz-adv-x="500" 
 />
    <glyph glyph-name="exclamdown" unicode="&#xa1;" 
 />
    <glyph glyph-name="cent" unicode="&#xa2;" 
 />
    <glyph glyph-name="sterling" unicode="&#xa3;" 
 />
    <glyph glyph-name="currency" unicode="&#xa4;" horiz-adv-x="556" 
d="M50 155l48 48q-21 32 -31.5 65.5t-10.5 69.5q0 41 9.5 74t32.5 65l-48 47l66 68l49 -48q30 21 67 32t75 11q73 0 134 -43l48 48l66 -68l-48 -47q44 -57 44 -138q0 -38 -10.5 -72.5t-32.5 -63.5l48 -48l-66 -67l-48 48q-61 -44 -137 -44q-40 0 -74.5 10t-66.5 34l-48 -48z
M307 482q-61 0 -103.5 -41.5t-42.5 -102.5q0 -59 43 -100t102 -41q58 0 99 42t41 101q0 56 -41 99t-98 43z" />
    <glyph glyph-name="yen" unicode="&#xa5;" horiz-adv-x="556" 
d="M211 -5v167h-185v80h185v38l-29 52h-156v80h113q-61 119 -82 161q-29 57 -57 108q19 0 50.5 -2.5t36.5 -2.5q20 0 32 1q50 4 55 4l82 -178q21 -45 37.5 -77.5t23.5 -42.5q25 32 73 134q27 57 72 164l48 -3l46 3q-23 -43 -58 -104t-97 -165h133v-80h-169l-16 -34v-56h185
v-80h-185v-167q-17 2 -25 2q-35 3 -44 3q-22 0 -40 -2t-29 -3z" />
    <glyph glyph-name="brokenbar" unicode="&#xa6;" horiz-adv-x="606" 
d="M260 472v283h86v-283h-86zM260 0v283h86v-283h-86z" />
    <glyph glyph-name="section" unicode="&#xa7;" horiz-adv-x="556" 
d="M105 33h18q25 -50 61 -76.5t88 -26.5q37 0 68.5 23t31.5 59q0 27 -16 45q-11 13 -40 29q-15 8 -88 40q-63 27 -109 57q-24 15 -36 48.5t-12 66.5q0 40 24 78.5t60 62.5q-46 37 -46 94q0 78 52.5 122t132.5 44q60 0 93.5 -9.5t81.5 -43.5q-16 -28 -22 -40q-10 -20 -21 -43
h-13q-5 30 -31 53q-35 30 -89 30q-32 0 -55 -20t-23 -52q0 -29 27 -52q11 -10 94 -51q37 -19 75 -38q33 -18 49 -35q40 -42 40 -98q0 -40 -22 -76q-18 -29 -53 -60q58 -40 58 -108q0 -53 -33 -97t-85 -64q-17 -6 -48.5 -12t-48.5 -6q-50 0 -96 12.5t-85 38.5q14 52 18 105z
M395 186q12 13 19.5 28t7.5 32q0 26 -28 50q-15 12 -94 52q-31 15 -60.5 30.5t-58.5 35.5q-33 -26 -33 -65q0 -37 54 -69q20 -12 87 -41q22 -10 44 -19q32 -15 62 -34z" />
    <glyph glyph-name="dieresis" unicode="&#xa8;" horiz-adv-x="500" 
d="M78 681h381q-2 -11 -3.5 -23t-1.5 -20q0 -7 2 -21t3 -22q-52 7 -106 10.5t-126 3.5v-216h105q27 0 52.5 2t70.5 7q-1 -5 -3 -20t-2 -22t2 -21t3 -22q-59 8 -123 8h-105v-253q72 0 126 3.5t106 10.5q-2 -11 -3.5 -23t-1.5 -20q0 -7 2 -21t3 -22h-381v681zM365 885
q25 0 44 -20t19 -46t-18 -45t-45 -19q-26 0 -46 19t-20 45t20 46t46 20zM154 755q-24 0 -45 20t-21 44q0 26 20 46t46 20q27 0 46 -19t19 -47q0 -26 -19 -45t-46 -19z" />
    <glyph glyph-name="copyright" unicode="&#xa9;" horiz-adv-x="750" 
d="M374 -18q-144 0 -245.5 104.5t-101.5 252.5q0 150 101 255t246 105t247 -105t102 -255q0 -148 -102.5 -252.5t-246.5 -104.5zM374 644q-121 0 -204 -89t-83 -216q0 -125 83.5 -213.5t203.5 -88.5q121 0 205 88t84 214q0 128 -83.5 216.5t-205.5 88.5zM502 216l7 -3
l-12 -48q-23 -13 -52 -19t-58 -6q-91 0 -149.5 51.5t-58.5 137.5q0 105 64 161q58 51 156 51q32 0 60 -6.5t54 -20.5l-13 -58h-8q-35 52 -92 52q-64 0 -99 -54q-30 -47 -30 -117q0 -74 34 -118.5t98 -44.5q25 0 52.5 12t46.5 30z" />
    <glyph glyph-name="ordfeminine" unicode="&#xaa;" 
 />
    <glyph glyph-name="guillemotleft" unicode="&#xab;" horiz-adv-x="500" 
d="M84 266q50 75 80 122q10 16 47 75q15 -15 39 -29q7 -4 26 -15q-63 -79 -112 -152q64 -88 70 -96.5t43 -54.5q-17 -7 -32.5 -18t-33.5 -27q-52 82 -78 122q-30 46 -49 73zM232 266q50 75 80 122q10 16 47 75q15 -15 39 -29q7 -4 26 -15q-63 -79 -112 -152q64 -88 70 -96.5
t43 -54.5q-17 -7 -32.5 -18t-33.5 -27q-52 82 -78 122q-30 46 -49 73z" />
    <glyph glyph-name="logicalnot" unicode="&#xac;" horiz-adv-x="606" 
d="M469 114v196h-418v86h504v-282h-86z" />
    <glyph glyph-name="minus" unicode="&#xad;" 
 />
    <glyph glyph-name="registered" unicode="&#xae;" horiz-adv-x="750" 
d="M375 -18q-144 0 -246 105t-102 255q0 148 101.5 252.5t246.5 104.5q144 0 245.5 -104.5t101.5 -252.5q0 -150 -101 -255t-246 -105zM375 644q-122 0 -205 -88t-83 -214q0 -127 83 -216t205 -89q121 0 204 89t83 216q0 126 -83 214t-204 88zM249 140v401h149q52 0 81 -25
t29 -70q0 -42 -23.5 -69.5t-66.5 -36.5q23 -41 48 -82t51 -81l22 -37l-45 3l-45 -3l-104 188h-18v-188l-39 3zM327 504v-157q50 0 72.5 19.5t22.5 64.5q0 47 -20 63q-13 10 -44 10h-31z" />
    <glyph glyph-name="macron" unicode="&#xaf;" 
 />
    <glyph glyph-name="degree" unicode="&#xb0;" horiz-adv-x="400" 
d="M350 520q0 -62 -44 -106t-106 -44t-106 44t-44 106t44 106t106 44t106 -44t44 -106zM295 520q0 39 -28 67t-68 28q-38 0 -66 -28t-28 -67q0 -40 27.5 -67.5t67.5 -27.5t67.5 27.5t27.5 67.5z" />
    <glyph glyph-name="plusminus" unicode="&#xb1;" horiz-adv-x="606" 
d="M260 365v140h86v-140h209v-86h-209v-145h-86v145h-209v86h209zM555 0h-504v86h504v-86z" />
    <glyph glyph-name="twosuperior" unicode="&#xb2;" 
 />
    <glyph glyph-name="threesuperior" unicode="&#xb3;" 
 />
    <glyph glyph-name="acute" unicode="&#xb4;" horiz-adv-x="333" 
d="M87 545l129 149q15 18 21 22q18 14 45 14q19 0 31.5 -12.5t12.5 -31.5q0 -21 -17 -36q-5 -4 -35 -24l-131 -81h-56z" />
    <glyph glyph-name="mu" unicode="&#xb5;" horiz-adv-x="556" 
d="M496 480v-485l-38.5 3.5t-27.5 1.5q-23 0 -39.5 -2t-27.5 -3v73q-42 -45 -67 -60q-36 -22 -85 -22q-12 0 -22 6v-251q-17 2 -25 2q-35 3 -44 3q-22 0 -40 -2t-29 -3v739q17 -2 38.5 -3.5t30.5 -1.5q22 0 40 2t29 3v-276q0 -65 19 -100t63 -35q57 0 76 51q11 30 11 99v261
q17 -2 38.5 -3.5t30.5 -1.5q22 0 40 2t29 3z" />
    <glyph glyph-name="paragraph" unicode="&#xb6;" horiz-adv-x="700" 
d="M549 635v-727l-45 3l-46 -3v727h-58v-727l-45 3l-46 -3v420l-34 -2q-92 0 -145 46t-53 134q0 81 46 124q55 51 176 51h299v-46h-49zM229 536v-68q0 -64 23 -89q19 -21 57 -21v277q-49 0 -64.5 -23.5t-15.5 -75.5z" />
    <glyph glyph-name="periodcentered" unicode="&#xb7;" horiz-adv-x="278" 
d="M139 151q-33 0 -57.5 24.5t-24.5 58.5q0 33 24 57t58 24q33 0 57.5 -23.5t24.5 -57.5t-23.5 -58.5t-58.5 -24.5z" />
    <glyph glyph-name="periodcentered" unicode="&#x2219;" horiz-adv-x="278" 
d="M139 151q-33 0 -57.5 24.5t-24.5 58.5q0 33 24 57t58 24q33 0 57.5 -23.5t24.5 -57.5t-23.5 -58.5t-58.5 -24.5z" />
    <glyph glyph-name="cedilla" unicode="&#xb8;" horiz-adv-x="500" 
d="M356 683q26 0 45 -19t19 -45t-18.5 -45.5t-45.5 -19.5t-46.5 19.5t-19.5 45.5t20 45t46 19zM145 554q-25 0 -45 20t-20 45q0 26 19 45t46 19q25 0 45 -19t20 -45q0 -27 -19 -46t-46 -19zM469 237h-286q0 -87 29 -132q34 -54 110 -54q31 0 61 12t56 33l11 -9l-21 -56
q-64 -45 -143 -45q-123 0 -187 69t-64 194q0 108 61 174t168 66q110 0 161 -72q44 -63 44 -180zM183 285h148q0 63 -10 100q-16 60 -56 60q-48 0 -68 -60q-14 -41 -14 -100z" />
    <glyph glyph-name="onesuperior" unicode="&#xb9;" horiz-adv-x="343" 
d="M171 699q32 0 65 -9.5t53 -29.5t31 -49t11 -57q0 -70 -42.5 -113.5t-118.5 -43.5q-73 0 -115.5 38.5t-42.5 105.5q0 33 10.5 62.5t33.5 51.5q19 20 51.5 32t63.5 12zM175 674q-30 0 -48 -30q-11 -19 -19 -55q-3 -18 -3 -35v-11q0 -44 11 -75q16 -46 54 -46q26 0 40 17
t19 37.5t7 43t2 44.5l-2 30q-3 31 -15 51q-17 29 -46 29zM22 277v50h299v-50h-299z" />
    <glyph glyph-name="ordmasculine" unicode="&#xba;" 
 />
    <glyph glyph-name="guillemotright" unicode="&#xbb;" horiz-adv-x="500" 
d="M416 268q-50 -75 -80 -122q-10 -16 -47 -75q-15 15 -39 29q-7 4 -26 15q63 79 112 152q-64 88 -70 96.5t-43 54.5q17 7 32.5 18t33.5 27q52 -82 78 -122q30 -46 49 -73zM268 268q-50 -75 -80 -122q-10 -16 -47 -75q-15 15 -39 29q-7 4 -26 15q63 79 112 152
q-64 88 -70 96.5t-43 54.5q17 7 32.5 18t33.5 27q52 -82 78 -122q30 -46 49 -73z" />
    <glyph glyph-name="onequarter" unicode="&#xbc;" 
 />
    <glyph glyph-name="onehalf" unicode="&#xbd;" 
 />
    <glyph glyph-name="threequarters" unicode="&#xbe;" 
 />
    <glyph glyph-name="questiondown" unicode="&#xbf;" 
 />
    <glyph glyph-name="Agrave" unicode="&#xc0;" horiz-adv-x="667" 
d="M411 204h-233q-32 -90 -46.5 -132.5t-23.5 -74.5l-47 3l-48 -3l286 693l38 -3l38 3l279 -694q-14 0 -49 2t-38 2q-15 0 -49.5 -2t-35.5 -2q-23 73 -34 106q-20 59 -37 102zM205 265h183l-89 233z" />
    <glyph glyph-name="Agrave" unicode="&#x410;" horiz-adv-x="667" 
d="M411 204h-233q-32 -90 -46.5 -132.5t-23.5 -74.5l-47 3l-48 -3l286 693l38 -3l38 3l279 -694q-14 0 -49 2t-38 2q-15 0 -49.5 -2t-35.5 -2q-23 73 -34 106q-20 59 -37 102zM205 265h183l-89 233z" />
    <glyph glyph-name="Aacute" unicode="&#xc1;" horiz-adv-x="611" 
d="M528 595q-53 7 -114.5 10.5t-177.5 3.5v-223h106q106 0 162.5 -42.5t56.5 -126.5q0 -122 -83 -175q-65 -42 -181 -42h-211v681h442q-3 -14 -4 -21t-1 -22q0 -20 5 -43zM236 331v-275q20 1 41 2t35 5q47 13 70.5 50t23.5 86q0 58 -29 95t-69 37h-72z" />
    <glyph glyph-name="Aacute" unicode="&#x411;" horiz-adv-x="611" 
d="M528 595q-53 7 -114.5 10.5t-177.5 3.5v-223h106q106 0 162.5 -42.5t56.5 -126.5q0 -122 -83 -175q-65 -42 -181 -42h-211v681h442q-3 -14 -4 -21t-1 -22q0 -20 5 -43zM236 331v-275q20 1 41 2t35 5q47 13 70.5 50t23.5 86q0 58 -29 95t-69 37h-72z" />
    <glyph glyph-name="Acircumflex" unicode="&#xc2;" horiz-adv-x="611" 
d="M235 623v-236h32q31 0 48.5 4t37.5 22t30.5 45t10.5 58q0 54 -28 82t-79 28zM235 329v-271h51q45 0 81.5 35.5t36.5 95.5q0 78 -44 111q-39 29 -125 29zM86 0v681h258q86 0 137 -32q62 -39 62 -120q0 -66 -50 -110q-45 -39 -114 -49v-9q72 -8 117 -39q63 -43 63 -126
q0 -97 -76 -150q-66 -46 -166 -46h-231z" />
    <glyph glyph-name="Acircumflex" unicode="&#x412;" horiz-adv-x="611" 
d="M235 623v-236h32q31 0 48.5 4t37.5 22t30.5 45t10.5 58q0 54 -28 82t-79 28zM235 329v-271h51q45 0 81.5 35.5t36.5 95.5q0 78 -44 111q-39 29 -125 29zM86 0v681h258q86 0 137 -32q62 -39 62 -120q0 -66 -50 -110q-45 -39 -114 -49v-9q72 -8 117 -39q63 -43 63 -126
q0 -97 -76 -150q-66 -46 -166 -46h-231z" />
    <glyph glyph-name="Atilde" unicode="&#xc3;" horiz-adv-x="500" 
d="M236 609v-613q-11 0 -36 2t-38 2t-38 -2t-38 -2v685h382q-2 -11 -3.5 -23t-1.5 -20q0 -7 2 -21t3 -22q-67 8 -111 11t-121 3z" />
    <glyph glyph-name="Atilde" unicode="&#x413;" horiz-adv-x="500" 
d="M236 609v-613q-11 0 -36 2t-38 2t-38 -2t-38 -2v685h382q-2 -11 -3.5 -23t-1.5 -20q0 -7 2 -21t3 -22q-67 8 -111 11t-121 3z" />
    <glyph glyph-name="Adieresis" unicode="&#xc4;" horiz-adv-x="667" 
d="M5 72h43q44 101 86 202q50 118 83 202q37 92 78 207q7 0 21 -2t21 -2q8 0 22 2t21 2q51 -141 116 -307q57 -147 121 -304h48q-2 -14 -3.5 -29t-2.5 -24q0 -10 2 -28t4 -26h-15q-18 22 -62 28.5t-102 6.5h-295q-69 0 -110.5 -5.5t-60.5 -29.5h-15q3 12 4 24t1 30
q0 16 -2 31t-3 22zM284 68q40 0 84 1t80 3q-33 99 -73.5 207t-79.5 214q-45 -111 -84 -210q-45 -115 -78 -211q20 -1 72 -2.5t79 -1.5z" />
    <glyph glyph-name="Adieresis" unicode="&#x414;" horiz-adv-x="667" 
d="M5 72h43q44 101 86 202q50 118 83 202q37 92 78 207q7 0 21 -2t21 -2q8 0 22 2t21 2q51 -141 116 -307q57 -147 121 -304h48q-2 -14 -3.5 -29t-2.5 -24q0 -10 2 -28t4 -26h-15q-18 22 -62 28.5t-102 6.5h-295q-69 0 -110.5 -5.5t-60.5 -29.5h-15q3 12 4 24t1 30
q0 16 -2 31t-3 22zM284 68q40 0 84 1t80 3q-33 99 -73.5 207t-79.5 214q-45 -111 -84 -210q-45 -115 -78 -211q20 -1 72 -2.5t79 -1.5z" />
    <glyph glyph-name="Aring" unicode="&#xc5;" horiz-adv-x="500" 
d="M76 681h382q-2 -11 -3.5 -23t-1.5 -20q0 -7 2 -21t3 -22q-52 7 -106 10.5t-126 3.5v-216h105q27 0 52.5 2t70.5 7q-1 -5 -3 -20t-2 -22t2 -21t3 -22q-59 8 -123 8h-105v-253q72 0 126 3.5t106 10.5q-2 -11 -3.5 -23t-1.5 -20q0 -7 2 -21t3 -22h-382v681z" />
    <glyph glyph-name="Aring" unicode="&#x415;" horiz-adv-x="500" 
d="M76 681h382q-2 -11 -3.5 -23t-1.5 -20q0 -7 2 -21t3 -22q-52 7 -106 10.5t-126 3.5v-216h105q27 0 52.5 2t70.5 7q-1 -5 -3 -20t-2 -22t2 -21t3 -22q-59 8 -123 8h-105v-253q72 0 126 3.5t106 10.5q-2 -11 -3.5 -23t-1.5 -20q0 -7 2 -21t3 -22h-382v681z" />
    <glyph glyph-name="AE" unicode="&#xc6;" horiz-adv-x="889" 
d="M444 0q-42 0 -74 -4v317l-212 -317l-85 4l-85 -4v13l279 387q-45 53 -102 116q-84 91 -157 161v8q13 -2 27 -4t26 -2q28 0 54 6q62 -79 125 -158q60 -75 130 -155v313q35 -6 74 -6q38 0 74 6v-313q62 72 160 194q47 59 95 119q24 -6 54 -6q11 0 26.5 2t26.5 4v-8
q-56 -53 -107 -107q-33 -34 -93 -102q-36 -40 -59 -68l279 -387v-13l-85 4l-85 -4l-212 317v-317q-12 0 -41.5 2t-32.5 2z" />
    <glyph glyph-name="AE" unicode="&#x416;" horiz-adv-x="889" 
d="M444 0q-42 0 -74 -4v317l-212 -317l-85 4l-85 -4v13l279 387q-45 53 -102 116q-84 91 -157 161v8q13 -2 27 -4t26 -2q28 0 54 6q62 -79 125 -158q60 -75 130 -155v313q35 -6 74 -6q38 0 74 6v-313q62 72 160 194q47 59 95 119q24 -6 54 -6q11 0 26.5 2t26.5 4v-8
q-56 -53 -107 -107q-33 -34 -93 -102q-36 -40 -59 -68l279 -387v-13l-85 4l-85 -4l-212 317v-317q-12 0 -41.5 2t-32.5 2z" />
    <glyph glyph-name="Ccedilla" unicode="&#xc7;" horiz-adv-x="611" 
d="M199 323v72q11 -1 20 -1.5t18 -0.5q70 0 101 39q27 34 27 99q0 49 -20 82q-26 43 -77 43q-56 0 -85 -38q-22 -29 -33 -87l-17 -1q-20 18 -40.5 37t-39.5 34q39 57 95 79.5t134 22.5q116 0 179.5 -46t63.5 -122q0 -132 -147 -169q86 -18 122 -43q57 -40 57 -126
q0 -96 -81.5 -154t-208.5 -58q-68 0 -130 20.5t-104 61.5q26 28 39 43q19 22 36 46l16 -1q8 -53 39 -85q35 -37 93 -37q64 0 105 49q37 44 37 101q0 81 -42 117q-34 29 -96 29q-13 0 -30 -2t-31 -4z" />
    <glyph glyph-name="Ccedilla" unicode="&#x417;" horiz-adv-x="611" 
d="M199 323v72q11 -1 20 -1.5t18 -0.5q70 0 101 39q27 34 27 99q0 49 -20 82q-26 43 -77 43q-56 0 -85 -38q-22 -29 -33 -87l-17 -1q-20 18 -40.5 37t-39.5 34q39 57 95 79.5t134 22.5q116 0 179.5 -46t63.5 -122q0 -132 -147 -169q86 -18 122 -43q57 -40 57 -126
q0 -96 -81.5 -154t-208.5 -58q-68 0 -130 20.5t-104 61.5q26 28 39 43q19 22 36 46l16 -1q8 -53 39 -85q35 -37 93 -37q64 0 105 49q37 44 37 101q0 81 -42 117q-34 29 -96 29q-13 0 -30 -2t-31 -4z" />
    <glyph glyph-name="Egrave" unicode="&#xc8;" horiz-adv-x="778" 
d="M86 -4v685q12 0 37 -3t38 -3q12 0 37 3t38 3v-469q84 89 198 231q109 136 182 240q16 -2 26 -2q8 0 25 1t25 1v-687q-12 0 -37 2t-39 2q-11 0 -36 -2t-38 -2v473q-87 -99 -196.5 -235t-184.5 -238q-7 1 -16 1h-13h-23.5t-22.5 -1z" />
    <glyph glyph-name="Egrave" unicode="&#x418;" horiz-adv-x="778" 
d="M86 -4v685q12 0 37 -3t38 -3q12 0 37 3t38 3v-469q84 89 198 231q109 136 182 240q16 -2 26 -2q8 0 25 1t25 1v-687q-12 0 -37 2t-39 2q-11 0 -36 -2t-38 -2v473q-87 -99 -196.5 -235t-184.5 -238q-7 1 -16 1h-13h-23.5t-22.5 -1z" />
    <glyph glyph-name="Eacute" unicode="&#xc9;" horiz-adv-x="778" 
d="M86 -4v685q12 0 37 -3t38 -3q12 0 37 3t38 3v-469q84 89 198 231q109 136 182 240q16 -2 26 -2q8 0 25 1t25 1v-687q-12 0 -37 2t-39 2q-11 0 -36 -2t-38 -2v473q-87 -99 -196.5 -235t-184.5 -238q-7 1 -16 1h-13h-23.5t-22.5 -1zM140 798l41 55q47 -47 100 -70.5
t109 -23.5q118 0 214 96l39 -51q-54 -54 -120.5 -82t-137.5 -28q-68 0 -130 25.5t-115 78.5z" />
    <glyph glyph-name="Eacute" unicode="&#x419;" horiz-adv-x="778" 
d="M86 -4v685q12 0 37 -3t38 -3q12 0 37 3t38 3v-469q84 89 198 231q109 136 182 240q16 -2 26 -2q8 0 25 1t25 1v-687q-12 0 -37 2t-39 2q-11 0 -36 -2t-38 -2v473q-87 -99 -196.5 -235t-184.5 -238q-7 1 -16 1h-13h-23.5t-22.5 -1zM140 798l41 55q47 -47 100 -70.5
t109 -23.5q118 0 214 96l39 -51q-54 -54 -120.5 -82t-137.5 -28q-68 0 -130 25.5t-115 78.5z" />
    <glyph glyph-name="Ecircumflex" unicode="&#xca;" horiz-adv-x="611" 
d="M86 -4v685q13 0 38 -3t37 -3t37 3t38 3v-313q130 149 260 313q9 -1 27.5 -3.5t26.5 -2.5q11 0 25 2l28 4v-8q-56 -53 -107 -107q-33 -34 -93 -102q-36 -40 -59 -68l279 -387v-13l-85 4l-85 -4l-217 317v-317q-12 0 -37 2t-38 2q-12 0 -37 -2t-38 -2z" />
    <glyph glyph-name="Ecircumflex" unicode="&#x41a;" horiz-adv-x="611" 
d="M86 -4v685q13 0 38 -3t37 -3t37 3t38 3v-313q130 149 260 313q9 -1 27.5 -3.5t26.5 -2.5q11 0 25 2l28 4v-8q-56 -53 -107 -107q-33 -34 -93 -102q-36 -40 -59 -68l279 -387v-13l-85 4l-85 -4l-217 317v-317q-12 0 -37 2t-38 2q-12 0 -37 -2t-38 -2z" />
    <glyph glyph-name="Edieresis" unicode="&#xcb;" horiz-adv-x="667" 
d="M295 682q7 0 21 -2t21 -2q8 0 22 2t21 2q42 -115 86 -230q28 -73 90 -228q40 -100 92 -227q-15 0 -44 3t-44 3t-44 -3t-44 -3q-31 104 -84 247q-47 124 -93 248q-26 -63 -65.5 -162.5t-63.5 -166.5q-33 -92 -57 -166l-47 3l-46 -3q48 113 97 227t94 227q49 121 88 231z
" />
    <glyph glyph-name="Edieresis" unicode="&#x41b;" horiz-adv-x="667" 
d="M295 682q7 0 21 -2t21 -2q8 0 22 2t21 2q42 -115 86 -230q28 -73 90 -228q40 -100 92 -227q-15 0 -44 3t-44 3t-44 -3t-44 -3q-31 104 -84 247q-47 124 -93 248q-26 -63 -65.5 -162.5t-63.5 -166.5q-33 -92 -57 -166l-47 3l-46 -3q48 113 97 227t94 227q49 121 88 231z
" />
    <glyph glyph-name="Igrave" unicode="&#xcc;" horiz-adv-x="888" 
d="M449 211q37 73 75 146q55 107 79 156q42 86 79 168q20 -3 41 -6q9 0 21 2t23 4q21 -185 42.5 -368t45.5 -317q-14 0 -47.5 2t-36.5 2q-14 0 -46 -2t-34 -2q0 94 -15 221.5t-28 242.5q-19 -37 -75 -152q-69 -141 -75 -153q-25 -52 -72 -155q-18 2 -24 2q-4 0 -14 -2
q-34 72 -68 143q-43 88 -74 151q-39 78 -77 156q-15 -113 -21 -165q-10 -84 -15.5 -155t-5.5 -134q-7 0 -23 2t-24 2t-26.5 -2t-20.5 -2q14 77 35 210q6 39 33 229q17 123 35 246q20 -3 41 -6q9 0 20 2t21 4q42 -90 74 -156q19 -39 78 -157q39 -79 79 -157z" />
    <glyph glyph-name="Igrave" unicode="&#x41c;" horiz-adv-x="888" 
d="M449 211q37 73 75 146q55 107 79 156q42 86 79 168q20 -3 41 -6q9 0 21 2t23 4q21 -185 42.5 -368t45.5 -317q-14 0 -47.5 2t-36.5 2q-14 0 -46 -2t-34 -2q0 94 -15 221.5t-28 242.5q-19 -37 -75 -152q-69 -141 -75 -153q-25 -52 -72 -155q-18 2 -24 2q-4 0 -14 -2
q-34 72 -68 143q-43 88 -74 151q-39 78 -77 156q-15 -113 -21 -165q-10 -84 -15.5 -155t-5.5 -134q-7 0 -23 2t-24 2t-26.5 -2t-20.5 -2q14 77 35 210q6 39 33 229q17 123 35 246q20 -3 41 -6q9 0 20 2t21 4q42 -90 74 -156q19 -39 78 -157q39 -79 79 -157z" />
    <glyph glyph-name="Iacute" unicode="&#xcd;" horiz-adv-x="778" 
d="M86 -4v685q12 0 37 -3t38 -3q12 0 37 3t38 3v-271q32 0 87 -2.5t66 -2.5q35 0 57 1q87 4 96 4v271q12 0 37 -3t37 -3q13 0 38 3t38 3v-685q-12 0 -37 2t-39 2q-11 0 -36 -2t-38 -2v334q-27 0 -88.5 2t-64.5 2q-35 0 -80 -1.5t-73 -2.5v-334q-12 0 -37 2t-38 2
q-12 0 -37 -2t-38 -2z" />
    <glyph glyph-name="Iacute" unicode="&#x41d;" horiz-adv-x="778" 
d="M86 -4v685q12 0 37 -3t38 -3q12 0 37 3t38 3v-271q32 0 87 -2.5t66 -2.5q35 0 57 1q87 4 96 4v271q12 0 37 -3t37 -3q13 0 38 3t38 3v-685q-12 0 -37 2t-39 2q-11 0 -36 -2t-38 -2v334q-27 0 -88.5 2t-64.5 2q-35 0 -80 -1.5t-73 -2.5v-334q-12 0 -37 2t-38 2
q-12 0 -37 -2t-38 -2z" />
    <glyph glyph-name="Icircumflex" unicode="&#xce;" horiz-adv-x="833" 
d="M799 343q0 -152 -105 -254q-110 -107 -289 -107q-168 0 -269 94t-101 263q0 155 103 255q108 105 291 105q193 0 291 -120q79 -97 79 -236zM422 639q-106 0 -162 -80q-59 -84 -59 -249q0 -110 48 -183q56 -85 161 -85q109 0 169 97q54 88 54 223q0 110 -48 186
q-58 91 -163 91z" />
    <glyph glyph-name="Icircumflex" unicode="&#x41e;" horiz-adv-x="833" 
d="M799 343q0 -152 -105 -254q-110 -107 -289 -107q-168 0 -269 94t-101 263q0 155 103 255q108 105 291 105q193 0 291 -120q79 -97 79 -236zM422 639q-106 0 -162 -80q-59 -84 -59 -249q0 -110 48 -183q56 -85 161 -85q109 0 169 97q54 88 54 223q0 110 -48 186
q-58 91 -163 91z" />
    <glyph glyph-name="Idieresis" unicode="&#xcf;" horiz-adv-x="778" 
d="M86 -4v685q90 0 166 -0.5t137 -0.5h22h25h25h24h22h21h19h17h15h14h12h37t39 1h11v-685q-12 0 -37 2t-39 2q-11 0 -36 -2t-38 -2v610l-153 3l-153 -3v-610q-12 0 -37 2t-38 2q-12 0 -37 -2t-38 -2z" />
    <glyph glyph-name="Idieresis" unicode="&#x41f;" horiz-adv-x="778" 
d="M86 -4v685q90 0 166 -0.5t137 -0.5h22h25h25h24h22h21h19h17h15h14h12h37t39 1h11v-685q-12 0 -37 2t-39 2q-11 0 -36 -2t-38 -2v610l-153 3l-153 -3v-610q-12 0 -37 2t-38 2q-12 0 -37 -2t-38 -2z" />
    <glyph glyph-name="Eth" unicode="&#xd0;" horiz-adv-x="556" 
d="M236 295v-299q-12 0 -37 2t-38 2t-38 -2t-37 -2v685h246q214 0 214 -169q0 -124 -87 -175q-72 -42 -223 -42zM236 626v-275q35 0 66 7q46 13 69 51q20 34 20 85q0 59 -26.5 95.5t-66.5 36.5h-62z" />
    <glyph glyph-name="Eth" unicode="&#x420;" horiz-adv-x="556" 
d="M236 295v-299q-12 0 -37 2t-38 2t-38 -2t-37 -2v685h246q214 0 214 -169q0 -124 -87 -175q-72 -42 -223 -42zM236 626v-275q35 0 66 7q46 13 69 51q20 34 20 85q0 59 -26.5 95.5t-66.5 36.5h-62z" />
    <glyph glyph-name="Ntilde" unicode="&#xd1;" horiz-adv-x="667" 
d="M609 117l13 -6l-22 -86q-44 -22 -94.5 -32.5t-103.5 -10.5q-164 0 -268 91q-108 94 -108 246q0 187 117 288q107 92 281 92q52 0 106 -12.5t98 -36.5l-23 -103h-14q-28 40 -73.5 66t-92.5 26q-116 0 -179 -98q-54 -84 -54 -208q0 -132 62 -211.5t176 -79.5
q47 0 95.5 20.5t83.5 54.5z" />
    <glyph glyph-name="Ntilde" unicode="&#x421;" horiz-adv-x="667" 
d="M609 117l13 -6l-22 -86q-44 -22 -94.5 -32.5t-103.5 -10.5q-164 0 -268 91q-108 94 -108 246q0 187 117 288q107 92 281 92q52 0 106 -12.5t98 -36.5l-23 -103h-14q-28 40 -73.5 66t-92.5 26q-116 0 -179 -98q-54 -84 -54 -208q0 -132 62 -211.5t176 -79.5
q47 0 95.5 20.5t83.5 54.5z" />
    <glyph glyph-name="Ograve" unicode="&#xd2;" horiz-adv-x="556" 
d="M356 610v-614q-13 0 -43.5 2t-31.5 2q-12 0 -37 -2t-38 -2v614q-53 0 -92.5 -3.5t-93.5 -10.5l3.5 24.5t1.5 18.5q0 14 -2 24.5t-3 17.5h515l-6 -42q0 -10 2 -21.5t4 -21.5q-73 9 -88 10q-45 4 -91 4z" />
    <glyph glyph-name="Ograve" unicode="&#x422;" horiz-adv-x="556" 
d="M356 610v-614q-13 0 -43.5 2t-31.5 2q-12 0 -37 -2t-38 -2v614q-53 0 -92.5 -3.5t-93.5 -10.5l3.5 24.5t1.5 18.5q0 14 -2 24.5t-3 17.5h515l-6 -42q0 -10 2 -21.5t4 -21.5q-73 9 -88 10q-45 4 -91 4z" />
    <glyph glyph-name="Oacute" unicode="&#xd3;" horiz-adv-x="667" 
d="M225 -3q17 29 56 109q12 25 35 72q-29 62 -88 160q-11 18 -113 182q-68 109 -97 161q15 0 45 -3t45 -3t45 3t45 3q13 -27 54 -98q8 -13 79 -136q48 -82 59 -104q24 37 81 159q30 64 81 179l49 -3l48 3q-29 -52 -107 -203q-72 -140 -135 -270q-75 -155 -97 -212
q-6 0 -20 2t-22 2z" />
    <glyph glyph-name="Oacute" unicode="&#x423;" horiz-adv-x="667" 
d="M225 -3q17 29 56 109q12 25 35 72q-29 62 -88 160q-11 18 -113 182q-68 109 -97 161q15 0 45 -3t45 -3t45 3t45 3q13 -27 54 -98q8 -13 79 -136q48 -82 59 -104q24 37 81 159q30 64 81 179l49 -3l48 3q-29 -52 -107 -203q-72 -140 -135 -270q-75 -155 -97 -212
q-6 0 -20 2t-22 2z" />
    <glyph glyph-name="Ocircumflex" unicode="&#xd4;" horiz-adv-x="889" 
d="M370 -4v70q-156 0 -243 67q-91 70 -91 206q0 123 86 196q90 76 248 76v70q12 0 37 -3t38 -3q12 0 37 3t38 3v-67q176 0 262 -85q72 -71 72 -187q0 -121 -89.5 -197t-245.5 -76l1 -73q-12 0 -37 2t-38 2q-12 0 -37 -2t-38 -2zM680 357q0 80 -40 138q-45 65 -120 65
l-1 -438q73 0 119 73q42 67 42 162zM210 321q0 -80 41 -138q46 -65 119 -65v442q-74 0 -117 -67.5t-43 -171.5z" />
    <glyph glyph-name="Ocircumflex" unicode="&#x424;" horiz-adv-x="889" 
d="M370 -4v70q-156 0 -243 67q-91 70 -91 206q0 123 86 196q90 76 248 76v70q12 0 37 -3t38 -3q12 0 37 3t38 3v-67q176 0 262 -85q72 -71 72 -187q0 -121 -89.5 -197t-245.5 -76l1 -73q-12 0 -37 2t-38 2q-12 0 -37 -2t-38 -2zM680 357q0 80 -40 138q-45 65 -120 65
l-1 -438q73 0 119 73q42 67 42 162zM210 321q0 -80 41 -138q46 -65 119 -65v442q-74 0 -117 -67.5t-43 -171.5z" />
    <glyph glyph-name="Otilde" unicode="&#xd5;" horiz-adv-x="611" 
d="M586 681l-97 -136l-116 -165l14 -23q49 -89 98.5 -177.5t97.5 -183.5q-14 0 -49 2t-38 2q-14 0 -48 -2t-38 -2q-31 62 -82 159q-25 47 -50 95l-92 -144q-13 -20 -34 -57q-16 -27 -28 -52l-50 3l-49 -3q42 60 74 106q53 76 72 105q28 41 69 105l-205 368q14 0 44 -3t45 -3
q14 0 44 3t45 3q26 -56 76 -151q24 -46 48 -91q75 121 151 242l49 -3z" />
    <glyph glyph-name="Otilde" unicode="&#x425;" horiz-adv-x="611" 
d="M586 681l-97 -136l-116 -165l14 -23q49 -89 98.5 -177.5t97.5 -183.5q-14 0 -49 2t-38 2q-14 0 -48 -2t-38 -2q-31 62 -82 159q-25 47 -50 95l-92 -144q-13 -20 -34 -57q-16 -27 -28 -52l-50 3l-49 -3q42 60 74 106q53 76 72 105q28 41 69 105l-205 368q14 0 44 -3t45 -3
q14 0 44 3t45 3q26 -56 76 -151q24 -46 48 -91q75 121 151 242l49 -3z" />
    <glyph glyph-name="Odieresis" unicode="&#xd6;" horiz-adv-x="778" 
d="M592 0h-202q-66 0 -142 -1t-162 -3v686q12 0 37 -2t38 -2q12 0 37 2t38 2v-609q15 0 76.5 -1.5t77.5 -1.5q59 0 92.5 1t59.5 2v609q12 0 37 -2t37 -2q13 0 38 2t38 2v-610h79q-6 -30 -6 -54q0 -10 2 -27t4 -26h-15q-18 22 -62.5 28.5t-101.5 6.5z" />
    <glyph glyph-name="Odieresis" unicode="&#x426;" horiz-adv-x="778" 
d="M592 0h-202q-66 0 -142 -1t-162 -3v686q12 0 37 -2t38 -2q12 0 37 2t38 2v-609q15 0 76.5 -1.5t77.5 -1.5q59 0 92.5 1t59.5 2v609q12 0 37 -2t37 -2q13 0 38 2t38 2v-610h79q-6 -30 -6 -54q0 -10 2 -27t4 -26h-15q-18 22 -62.5 28.5t-101.5 6.5z" />
    <glyph glyph-name="multiply" unicode="&#xd7;" horiz-adv-x="722" 
d="M58 420v261q12 0 37 -3t38 -3q12 0 37 3t38 3v-261q0 -42 39 -61q29 -14 77 -14q35 0 76.5 17.5t85.5 47.5v271q12 0 37 -3t37 -3q13 0 38 3t38 3v-685q-12 0 -37 2t-39 2q-11 0 -36 -2t-38 -2v334q-62 -37 -105 -52q-57 -20 -119 -20q-79 0 -139 43q-65 47 -65 119z" />
    <glyph glyph-name="multiply" unicode="&#x427;" horiz-adv-x="722" 
d="M58 420v261q12 0 37 -3t38 -3q12 0 37 3t38 3v-261q0 -42 39 -61q29 -14 77 -14q35 0 76.5 17.5t85.5 47.5v271q12 0 37 -3t37 -3q13 0 38 3t38 3v-685q-12 0 -37 2t-39 2q-11 0 -36 -2t-38 -2v334q-62 -37 -105 -52q-57 -20 -119 -20q-79 0 -139 43q-65 47 -65 119z" />
    <glyph glyph-name="Oslash" unicode="&#xd8;" horiz-adv-x="944" 
d="M317 69q28 0 46.5 1t34.5 2v609q12 0 37 -3t38 -3q12 0 37 3t38 3v-609q20 0 41.5 -1t40.5 -2q27 0 45.5 1t34.5 2v609q12 0 37 -2t37 -2q13 0 38 2t38 2v-686q-45 0 -193.5 2.5t-193.5 2.5q-100 0 -201.5 -1.5t-185.5 -3.5v686q12 0 37 -2t38 -2q12 0 37 2t38 2v-609z
" />
    <glyph glyph-name="Oslash" unicode="&#x428;" horiz-adv-x="944" 
d="M317 69q28 0 46.5 1t34.5 2v609q12 0 37 -3t38 -3q12 0 37 3t38 3v-609q20 0 41.5 -1t40.5 -2q27 0 45.5 1t34.5 2v609q12 0 37 -2t37 -2q13 0 38 2t38 2v-686q-45 0 -193.5 2.5t-193.5 2.5q-100 0 -201.5 -1.5t-185.5 -3.5v686q12 0 37 -2t38 -2q12 0 37 2t38 2v-609z
" />
    <glyph glyph-name="Ugrave" unicode="&#xd9;" horiz-adv-x="944" 
d="M760 0h-287q-76 0 -175.5 -1t-211.5 -3v686q12 0 37 -2t38 -2q12 0 37 2t38 2v-609l81 -3q28 0 46.5 1t34.5 2v609q12 0 37 -3t38 -3q12 0 37 3t38 3v-609q20 0 41.5 -1t40.5 -2q27 0 45.5 1t34.5 2v609q12 0 37 -2t37 -2q13 0 38 2t38 2v-610h79q-6 -30 -6 -54
q0 -10 2 -27t4 -26h-15q-18 22 -62.5 28.5t-101.5 6.5z" />
    <glyph glyph-name="Ugrave" unicode="&#x429;" horiz-adv-x="944" 
d="M760 0h-287q-76 0 -175.5 -1t-211.5 -3v686q12 0 37 -2t38 -2q12 0 37 2t38 2v-609l81 -3q28 0 46.5 1t34.5 2v609q12 0 37 -3t38 -3q12 0 37 3t38 3v-609q20 0 41.5 -1t40.5 -2q27 0 45.5 1t34.5 2v609q12 0 37 -2t37 -2q13 0 38 2t38 2v-610h79q-6 -30 -6 -54
q0 -10 2 -27t4 -26h-15q-18 22 -62.5 28.5t-101.5 6.5z" />
    <glyph glyph-name="Uacute" unicode="&#xda;" horiz-adv-x="593" 
d="M122 0v610q-55 0 -71 -2t-71 -12q2 5 3.5 17t1.5 26q0 10 -1 21.5t-4 20.5h292v-295h96q214 0 214 -169q0 -122 -81 -175q-64 -42 -178 -42h-201zM272 331v-275q16 1 34 2t32 5q46 13 69 51q20 34 20 85q0 59 -26.5 95.5t-66.5 36.5h-62z" />
    <glyph glyph-name="Uacute" unicode="&#x42a;" horiz-adv-x="593" 
d="M122 0v610q-55 0 -71 -2t-71 -12q2 5 3.5 17t1.5 26q0 10 -1 21.5t-4 20.5h292v-295h96q214 0 214 -169q0 -122 -81 -175q-64 -42 -178 -42h-201zM272 331v-275q16 1 34 2t32 5q46 13 69 51q20 34 20 85q0 59 -26.5 95.5t-66.5 36.5h-62z" />
    <glyph glyph-name="Ucircumflex" unicode="&#xdb;" horiz-adv-x="869" 
d="M235 685v-299h96q214 0 214 -169q0 -122 -81 -175q-64 -42 -178 -42h-201v685q12 0 37 -2t38 -2q12 0 37 2t38 2zM635 -4v685q12 0 37 -3t38 -3q12 0 37 3t38 3v-685q-12 0 -37 2t-38 2q-12 0 -37 -2t-38 -2zM235 331v-275q16 1 34 2t32 5q46 13 69 51q20 34 20 85
q0 59 -26.5 95.5t-66.5 36.5h-62z" />
    <glyph glyph-name="Ucircumflex" unicode="&#x42b;" horiz-adv-x="869" 
d="M235 685v-299h96q214 0 214 -169q0 -122 -81 -175q-64 -42 -178 -42h-201v685q12 0 37 -2t38 -2q12 0 37 2t38 2zM635 -4v685q12 0 37 -3t38 -3q12 0 37 3t38 3v-685q-12 0 -37 2t-38 2q-12 0 -37 -2t-38 -2zM235 331v-275q16 1 34 2t32 5q46 13 69 51q20 34 20 85
q0 59 -26.5 95.5t-66.5 36.5h-62z" />
    <glyph glyph-name="Udieresis" unicode="&#xdc;" horiz-adv-x="556" 
d="M226 685v-299h96q214 0 214 -169q0 -122 -81 -175q-64 -42 -178 -42h-201v685q12 0 37 -2t38 -2q12 0 37 2t38 2zM226 331v-275q16 1 34 2t32 5q46 13 69 51q20 34 20 85q0 59 -26.5 95.5t-66.5 36.5h-62z" />
    <glyph glyph-name="Udieresis" unicode="&#x42c;" horiz-adv-x="556" 
d="M226 685v-299h96q214 0 214 -169q0 -122 -81 -175q-64 -42 -178 -42h-201v685q12 0 37 -2t38 -2q12 0 37 2t38 2zM226 331v-275q16 1 34 2t32 5q46 13 69 51q20 34 20 85q0 59 -26.5 95.5t-66.5 36.5h-62z" />
    <glyph glyph-name="Yacute" unicode="&#xdd;" horiz-adv-x="667" 
d="M475 325h-230q-64 0 -123 -8q0 9 2.5 24.5t2.5 18.5q0 9 -2.5 24t-2.5 18q44 -5 68 -7t55 -2h226q-13 107 -66 171q-61 75 -163 75q-48 0 -92.5 -24.5t-73.5 -67.5h-14l-23 103q40 22 97.5 35.5t106.5 13.5q174 0 281 -92q117 -101 117 -288q0 -152 -106 -244.5
t-270 -92.5q-57 0 -104 9.5t-94 33.5l-22 86l13 6q35 -33 83.5 -54t95.5 -21q112 0 175 78t63 205z" />
    <glyph glyph-name="Yacute" unicode="&#x42d;" horiz-adv-x="667" 
d="M475 325h-230q-64 0 -123 -8q0 9 2.5 24.5t2.5 18.5q0 9 -2.5 24t-2.5 18q44 -5 68 -7t55 -2h226q-13 107 -66 171q-61 75 -163 75q-48 0 -92.5 -24.5t-73.5 -67.5h-14l-23 103q40 22 97.5 35.5t106.5 13.5q174 0 281 -92q117 -101 117 -288q0 -152 -106 -244.5
t-270 -92.5q-57 0 -104 9.5t-94 33.5l-22 86l13 6q35 -33 83.5 -54t95.5 -21q112 0 175 78t63 205z" />
    <glyph glyph-name="Thorn" unicode="&#xde;" horiz-adv-x="1074" 
d="M657 -18q-159 0 -253 89q-97 92 -97 254q-10 0 -20 1t-15 1q-8 0 -18 -1t-18 -1v-329q-12 0 -37 2t-38 2q-12 0 -37 -2t-38 -2v685q12 0 37 -3t38 -3q12 0 37 3t38 3v-276q15 0 28 -0.5t25 -0.5h14q6 1 10 1q22 132 116 211q99 83 252 83q186 0 278 -120q72 -94 72 -236
q0 -152 -99 -254q-104 -107 -275 -107zM674 639q-97 0 -149 -82t-52 -247q0 -111 42 -183q50 -85 147 -85q101 0 155 97q48 87 48 223q0 111 -42 186q-51 91 -149 91z" />
    <glyph glyph-name="Thorn" unicode="&#x42e;" horiz-adv-x="1074" 
d="M657 -18q-159 0 -253 89q-97 92 -97 254q-10 0 -20 1t-15 1q-8 0 -18 -1t-18 -1v-329q-12 0 -37 2t-38 2q-12 0 -37 -2t-38 -2v685q12 0 37 -3t38 -3q12 0 37 3t38 3v-276q15 0 28 -0.5t25 -0.5h14q6 1 10 1q22 132 116 211q99 83 252 83q186 0 278 -120q72 -94 72 -236
q0 -152 -99 -254q-104 -107 -275 -107zM674 639q-97 0 -149 -82t-52 -247q0 -111 42 -183q50 -85 147 -85q101 0 155 97q48 87 48 223q0 111 -42 186q-51 91 -149 91z" />
    <glyph glyph-name="germandbls" unicode="&#xdf;" horiz-adv-x="611" 
d="M536 681v-685q-12 0 -37 2t-38 2q-12 0 -37 -2t-38 -2v319h-7q-18 -29 -35 -58t-29 -52l-120 -209q-15 0 -45 2t-45 2q-16 0 -46 -2t-44 -2l39 61q45 70 67 104q71 111 109 177q-73 16 -113 60q-43 47 -43 120q0 51 21.5 85.5t65.5 57.5q17 9 51.5 14.5t92.5 5.5h18h213z
M386 359v267h-30q-53 0 -76 -10q-37 -16 -46 -64q-5 -26 -5 -50q0 -144 132 -144h15q7 1 10 1z" />
    <glyph glyph-name="germandbls" unicode="&#x42f;" horiz-adv-x="611" 
d="M536 681v-685q-12 0 -37 2t-38 2q-12 0 -37 -2t-38 -2v319h-7q-18 -29 -35 -58t-29 -52l-120 -209q-15 0 -45 2t-45 2q-16 0 -46 -2t-44 -2l39 61q45 70 67 104q71 111 109 177q-73 16 -113 60q-43 47 -43 120q0 51 21.5 85.5t65.5 57.5q17 9 51.5 14.5t92.5 5.5h18h213z
M386 359v267h-30q-53 0 -76 -10q-37 -16 -46 -64q-5 -26 -5 -50q0 -144 132 -144h15q7 1 10 1z" />
    <glyph glyph-name="agrave" unicode="&#xe0;" horiz-adv-x="500" 
d="M432 356v-274q0 -26 11 -36t41 -10v-23q-17 -8 -45 -17.5t-46 -9.5q-35 0 -60.5 19t-37.5 54q-20 -35 -54 -54t-74 -19q-64 0 -103 34t-39 98q0 67 44 101q36 28 138 53q24 6 37 10q21 7 36 16q8 8 11.5 17t3.5 22q0 35 -29.5 61.5t-65.5 26.5q-43 0 -83 -24
q-33 -20 -39 -38h-7l-13 59q33 32 84 49.5t101 17.5q74 0 126 -29q63 -35 63 -104zM295 159v97l-48 -16q-33 -12 -51.5 -26t-25 -34.5t-6.5 -49.5q0 -32 12.5 -55.5t41.5 -23.5q43 0 62 35q15 27 15 73z" />
    <glyph glyph-name="agrave" unicode="&#x430;" horiz-adv-x="500" 
d="M432 356v-274q0 -26 11 -36t41 -10v-23q-17 -8 -45 -17.5t-46 -9.5q-35 0 -60.5 19t-37.5 54q-20 -35 -54 -54t-74 -19q-64 0 -103 34t-39 98q0 67 44 101q36 28 138 53q24 6 37 10q21 7 36 16q8 8 11.5 17t3.5 22q0 35 -29.5 61.5t-65.5 26.5q-43 0 -83 -24
q-33 -20 -39 -38h-7l-13 59q33 32 84 49.5t101 17.5q74 0 126 -29q63 -35 63 -104zM295 159v97l-48 -16q-33 -12 -51.5 -26t-25 -34.5t-6.5 -49.5q0 -32 12.5 -55.5t41.5 -23.5q43 0 62 35q15 27 15 73z" />
    <glyph glyph-name="aacute" unicode="&#xe1;" horiz-adv-x="556" 
d="M33 227q0 283 90.5 368.5t391.5 85.5q-2 -9 -4 -19.5t-2 -22.5q0 -10 2 -21.5t4 -22.5q-61 13 -146 13q-132 0 -198 -54q-56 -46 -56 -124q31 28 75.5 43.5t94.5 15.5q115 0 185.5 -64.5t70.5 -175.5q0 -115 -70 -189t-186 -74q-112 0 -182 65.5t-70 175.5zM292 445
q-57 0 -86 -63q-25 -55 -25 -152q0 -70 19 -123q27 -76 85 -76q54 0 83 76q25 65 25 159q0 77 -26 128t-75 51z" />
    <glyph glyph-name="aacute" unicode="&#x431;" horiz-adv-x="556" 
d="M33 227q0 283 90.5 368.5t391.5 85.5q-2 -9 -4 -19.5t-2 -22.5q0 -10 2 -21.5t4 -22.5q-61 13 -146 13q-132 0 -198 -54q-56 -46 -56 -124q31 28 75.5 43.5t94.5 15.5q115 0 185.5 -64.5t70.5 -175.5q0 -115 -70 -189t-186 -74q-112 0 -182 65.5t-70 175.5zM292 445
q-57 0 -86 -63q-25 -55 -25 -152q0 -70 19 -123q27 -76 85 -76q54 0 83 76q25 65 25 159q0 77 -26 128t-75 51z" />
    <glyph glyph-name="acircumflex" unicode="&#xe2;" horiz-adv-x="500" 
d="M194 228v-175h31q44 0 72 22t28 61q0 51 -27 71.5t-73 20.5h-31zM194 429v-149h25q85 0 85 78q0 38 -20.5 54.5t-60.5 16.5h-29zM56 0v479h209q79 0 123 -25q53 -30 53 -92q0 -40 -29.5 -69.5t-78.5 -34.5q65 -12 93 -33q40 -30 40 -93q0 -64 -58 -100q-53 -33 -133 -33z
" />
    <glyph glyph-name="acircumflex" unicode="&#x432;" horiz-adv-x="500" 
d="M194 228v-175h31q44 0 72 22t28 61q0 51 -27 71.5t-73 20.5h-31zM194 429v-149h25q85 0 85 78q0 38 -20.5 54.5t-60.5 16.5h-29zM56 0v479h209q79 0 123 -25q53 -30 53 -92q0 -40 -29.5 -69.5t-78.5 -34.5q65 -12 93 -33q40 -30 40 -93q0 -64 -58 -100q-53 -33 -133 -33z
" />
    <glyph glyph-name="atilde" unicode="&#xe3;" horiz-adv-x="407" 
d="M400 412q-41 4 -94 6.5t-112 2.5v-425q-11 0 -38.5 2t-30.5 2q-11 0 -39 -2t-30 -2v483h344q-5 -15 -5 -33q0 -19 5 -34z" />
    <glyph glyph-name="atilde" unicode="&#x433;" horiz-adv-x="407" 
d="M400 412q-41 4 -94 6.5t-112 2.5v-425q-11 0 -38.5 2t-30.5 2q-11 0 -39 -2t-30 -2v483h344q-5 -15 -5 -33q0 -19 5 -34z" />
    <glyph glyph-name="adieresis" unicode="&#xe4;" horiz-adv-x="500" 
d="M-16 58h58l33 78q34 84 69.5 173t61.5 170q9 0 26 -2t25 -2q9 0 26 2t25 2q24 -70 48.5 -140t49.5 -140q10 -27 54 -141h51q-2 -7 -3.5 -17.5t-1.5 -25.5q0 -13 1 -22t4 -22h-10q-22 24 -68.5 26.5t-141.5 2.5h-87q-94 0 -139 -2.5t-72 -26.5h-9q2 6 3.5 18t1.5 26
q0 12 -1 23t-4 20zM117 58h194l-93 284q-29 -78 -39 -105q-34 -92 -62 -179z" />
    <glyph glyph-name="adieresis" unicode="&#x434;" horiz-adv-x="500" 
d="M-16 58h58l33 78q34 84 69.5 173t61.5 170q9 0 26 -2t25 -2q9 0 26 2t25 2q24 -70 48.5 -140t49.5 -140q10 -27 54 -141h51q-2 -7 -3.5 -17.5t-1.5 -25.5q0 -13 1 -22t4 -22h-10q-22 24 -68.5 26.5t-141.5 2.5h-87q-94 0 -139 -2.5t-72 -26.5h-9q2 6 3.5 18t1.5 26
q0 12 -1 23t-4 20zM117 58h194l-93 284q-29 -78 -39 -105q-34 -92 -62 -179z" />
    <glyph glyph-name="aring" unicode="&#xe5;" horiz-adv-x="500" 
d="M477 237h-296q0 -84 34 -132q38 -54 115 -54q31 0 61 12t56 33l11 -9l-21 -56q-64 -45 -143 -45q-124 0 -192.5 69.5t-68.5 193.5q0 108 63 174t171 66q111 0 164 -72q46 -63 46 -180zM181 285h158q0 58 -13 100q-19 60 -58 60q-48 0 -71 -60q-16 -42 -16 -100z" />
    <glyph glyph-name="aring" unicode="&#x435;" horiz-adv-x="500" 
d="M477 237h-296q0 -84 34 -132q38 -54 115 -54q31 0 61 12t56 33l11 -9l-21 -56q-64 -45 -143 -45q-124 0 -192.5 69.5t-68.5 193.5q0 108 63 174t171 66q111 0 164 -72q46 -63 46 -180zM181 285h158q0 58 -13 100q-19 60 -58 60q-48 0 -71 -60q-16 -42 -16 -100z" />
    <glyph glyph-name="ae" unicode="&#xe6;" horiz-adv-x="741" 
d="M439 -4q-27 4 -68 4q-10 0 -33 -2t-36 -2v231q-10 -4 -19 -18q-1 -2 -9 -14q-28 -42 -62 -100q-26 -45 -55 -99q-12 0 -37 2t-39 2q-11 0 -37 -2t-39 -2v7q47 85 98 166l81 127q-84 88 -168 177v6q7 0 21 -2t21 -2q8 0 22 2t21 2q68 -78 96 -110q56 -63 96 -104l9 1v213
q35 -5 69 -5q18 0 36.5 1t31.5 4v-213q0 -1 9 -1q46 47 96 103q63 73 96 111q7 0 21 -2t22 -2q7 0 21 2t21 2v-6q-27 -34 -61 -68q-99 -99 -107 -109l81 -127q51 -81 98 -166v-7q-12 0 -43 2t-33 2q-13 0 -38 -2t-38 -2q-29 54 -55 99q-34 58 -62 100q-6 9 -12 18.5
t-16 13.5v-231z" />
    <glyph glyph-name="ae" unicode="&#x436;" horiz-adv-x="741" 
d="M439 -4q-27 4 -68 4q-10 0 -33 -2t-36 -2v231q-10 -4 -19 -18q-1 -2 -9 -14q-28 -42 -62 -100q-26 -45 -55 -99q-12 0 -37 2t-39 2q-11 0 -37 -2t-39 -2v7q47 85 98 166l81 127q-84 88 -168 177v6q7 0 21 -2t21 -2q8 0 22 2t21 2q68 -78 96 -110q56 -63 96 -104l9 1v213
q35 -5 69 -5q18 0 36.5 1t31.5 4v-213q0 -1 9 -1q46 47 96 103q63 73 96 111q7 0 21 -2t22 -2q7 0 21 2t21 2v-6q-27 -34 -61 -68q-99 -99 -107 -109l81 -127q51 -81 98 -166v-7q-12 0 -43 2t-33 2q-13 0 -38 -2t-38 -2q-29 54 -55 99q-34 58 -62 100q-6 9 -12 18.5
t-16 13.5v-231z" />
    <glyph glyph-name="ccedilla" unicode="&#xe7;" horiz-adv-x="481" 
d="M423 365q0 -48 -30.5 -75t-85.5 -32q67 -9 104 -37.5t37 -85.5q0 -68 -67 -107t-167 -39q-62 0 -113.5 8t-78.5 24q6 18 13.5 39t9.5 36h8q18 -28 55 -41.5t81 -13.5q52 0 85 25t33 69q0 47 -28 69.5t-76 22.5l-51 -2v59q13 -1 26 -1.5t25 -0.5q39 0 60 22t21 61
q0 79 -97 79q-37 0 -72 -14t-44 -38h-9q-9 35 -24 73q31 12 81 18.5t97 6.5q94 0 150.5 -32t56.5 -93z" />
    <glyph glyph-name="ccedilla" unicode="&#x437;" horiz-adv-x="481" 
d="M423 365q0 -48 -30.5 -75t-85.5 -32q67 -9 104 -37.5t37 -85.5q0 -68 -67 -107t-167 -39q-62 0 -113.5 8t-78.5 24q6 18 13.5 39t9.5 36h8q18 -28 55 -41.5t81 -13.5q52 0 85 25t33 69q0 47 -28 69.5t-76 22.5l-51 -2v59q13 -1 26 -1.5t25 -0.5q39 0 60 22t21 61
q0 79 -97 79q-37 0 -72 -14t-44 -38h-9q-9 35 -24 73q31 12 81 18.5t97 6.5q94 0 150.5 -32t56.5 -93z" />
    <glyph glyph-name="egrave" unicode="&#xe8;" horiz-adv-x="556" 
d="M194 479v-304q50 63 104 144q41 62 100 160l52 -3l50 3v-483q-11 0 -38.5 2t-30.5 2q-17 0 -26 -0.5t-43 -3.5v308q-58 -74 -112 -156q-48 -73 -92 -152q-5 0 -22 2t-28 2q-18 0 -32.5 -2t-19.5 -2v483q29 -2 43 -3t26 -1q29 0 43 1q18 3 26 3z" />
    <glyph glyph-name="egrave" unicode="&#x438;" horiz-adv-x="556" 
d="M194 479v-304q50 63 104 144q41 62 100 160l52 -3l50 3v-483q-11 0 -38.5 2t-30.5 2q-17 0 -26 -0.5t-43 -3.5v308q-58 -74 -112 -156q-48 -73 -92 -152q-5 0 -22 2t-28 2q-18 0 -32.5 -2t-19.5 -2v483q29 -2 43 -3t26 -1q29 0 43 1q18 3 26 3z" />
    <glyph glyph-name="eacute" unicode="&#xe9;" horiz-adv-x="556" 
d="M194 479v-304q50 63 104 144q41 62 100 160l52 -3l50 3v-483q-11 0 -38.5 2t-30.5 2q-17 0 -26 -0.5t-43 -3.5v308q-58 -74 -112 -156q-48 -73 -92 -152q-5 0 -22 2t-28 2q-18 0 -32.5 -2t-19.5 -2v483q29 -2 43 -3t26 -1q29 0 43 1q18 3 26 3zM76 609l33 44
q40 -37 81.5 -55.5t85.5 -18.5q89 0 172 74l32 -43q-42 -41 -95.5 -63t-109.5 -22q-55 0 -105 20.5t-94 63.5z" />
    <glyph glyph-name="eacute" unicode="&#x439;" horiz-adv-x="556" 
d="M194 479v-304q50 63 104 144q41 62 100 160l52 -3l50 3v-483q-11 0 -38.5 2t-30.5 2q-17 0 -26 -0.5t-43 -3.5v308q-58 -74 -112 -156q-48 -73 -92 -152q-5 0 -22 2t-28 2q-18 0 -32.5 -2t-19.5 -2v483q29 -2 43 -3t26 -1q29 0 43 1q18 3 26 3zM76 609l33 44
q40 -37 81.5 -55.5t85.5 -18.5q89 0 172 74l32 -43q-42 -41 -95.5 -63t-109.5 -22q-55 0 -105 20.5t-94 63.5z" />
    <glyph glyph-name="ecircumflex" unicode="&#xea;" horiz-adv-x="500" 
d="M56 -4v483q33 -4 44.5 -4.5t24.5 -0.5q31 0 69 5v-213q3 -3 9 -1q46 47 96 103q63 73 96 111q7 0 21 -2t22 -2q7 0 21 2t21 2v-6q-27 -34 -61 -68q-99 -99 -107 -109l81 -127q51 -81 98 -166v-7q-12 0 -43 2t-33 2q-13 0 -38 -2t-38 -2q-29 54 -55 99q-34 58 -62 100
q-7 11 -13 18t-15 14v-231q-11 0 -39 2t-30 2q-11 0 -39 -2t-30 -2z" />
    <glyph glyph-name="ecircumflex" unicode="&#x43a;" horiz-adv-x="500" 
d="M56 -4v483q33 -4 44.5 -4.5t24.5 -0.5q31 0 69 5v-213q3 -3 9 -1q46 47 96 103q63 73 96 111q7 0 21 -2t22 -2q7 0 21 2t21 2v-6q-27 -34 -61 -68q-99 -99 -107 -109l81 -127q51 -81 98 -166v-7q-12 0 -43 2t-33 2q-13 0 -38 -2t-38 -2q-29 54 -55 99q-34 58 -62 100
q-7 11 -13 18t-15 14v-231q-11 0 -39 2t-30 2q-11 0 -39 -2t-30 -2z" />
    <glyph glyph-name="edieresis" unicode="&#xeb;" horiz-adv-x="481" 
d="M322 -4l-113 346q-32 -86 -62.5 -171t-58.5 -175l-41 2l-39 -2q-1 5 2.5 12.5t4.5 10.5q13 27 32 72q9 22 19 45q34 84 69.5 173t61.5 170q9 0 26 -2t25 -2q9 0 26 2t25 2q37 -107 56 -161q43 -121 58 -163t62 -159q-12 0 -43 2t-34 2q-13 0 -38 -2t-38 -2z" />
    <glyph glyph-name="edieresis" unicode="&#x43b;" horiz-adv-x="481" 
d="M322 -4l-113 346q-32 -86 -62.5 -171t-58.5 -175l-41 2l-39 -2q-1 5 2.5 12.5t4.5 10.5q13 27 32 72q9 22 19 45q34 84 69.5 173t61.5 170q9 0 26 -2t25 -2q9 0 26 2t25 2q37 -107 56 -161q43 -121 58 -163t62 -159q-12 0 -43 2t-34 2q-13 0 -38 -2t-38 -2z" />
    <glyph glyph-name="igrave" unicode="&#xec;" horiz-adv-x="741" 
d="M572 -4l-60 342q-53 -131 -80 -207.5t-42 -134.5q-9 0 -27 2t-28 2t-29 -2t-28 -2l-122 342q-16 -74 -33.5 -170.5t-28.5 -171.5l-40 2l-39 -2q33 118 66 239.5t62 243.5q9 0 27 -2t27 -2t29.5 2t23.5 2l121 -329q61 164 123 329q9 0 27 -2t28 -2q9 0 27 2t27 2
q28 -145 50 -242q29 -124 66 -241q-12 0 -36 2t-37 2q-12 0 -37 -2t-37 -2z" />
    <glyph glyph-name="igrave" unicode="&#x43c;" horiz-adv-x="741" 
d="M572 -4l-60 342q-53 -131 -80 -207.5t-42 -134.5q-9 0 -27 2t-28 2t-29 -2t-28 -2l-122 342q-16 -74 -33.5 -170.5t-28.5 -171.5l-40 2l-39 -2q33 118 66 239.5t62 243.5q9 0 27 -2t27 -2t29.5 2t23.5 2l121 -329q61 164 123 329q9 0 27 -2t28 -2q9 0 27 2t27 2
q28 -145 50 -242q29 -124 66 -241q-12 0 -36 2t-37 2q-12 0 -37 -2t-37 -2z" />
    <glyph glyph-name="iacute" unicode="&#xed;" horiz-adv-x="556" 
d="M194 479v-199h168v199q29 -3 38.5 -3.5t30.5 -0.5q29 0 43 1q18 3 26 3v-483q-11 0 -38.5 2t-30.5 2q-17 0 -26 -0.5t-43 -3.5v223h-168v-223q-11 0 -38.5 2t-30.5 2q-17 0 -26 -0.5t-43 -3.5v483q29 -2 43 -3t26 -1q29 0 43 1q18 3 26 3z" />
    <glyph glyph-name="iacute" unicode="&#x43d;" horiz-adv-x="556" 
d="M194 479v-199h168v199q29 -3 38.5 -3.5t30.5 -0.5q29 0 43 1q18 3 26 3v-483q-11 0 -38.5 2t-30.5 2q-17 0 -26 -0.5t-43 -3.5v223h-168v-223q-11 0 -38.5 2t-30.5 2q-17 0 -26 -0.5t-43 -3.5v483q29 -2 43 -3t26 -1q29 0 43 1q18 3 26 3z" />
    <glyph glyph-name="icircumflex" unicode="&#xee;" horiz-adv-x="574" 
d="M285 -14q-112 0 -182 65.5t-70 175.5q0 118 69 190t183 72q115 0 185.5 -64.5t70.5 -175.5q0 -115 -70 -189t-186 -74zM292 445q-57 0 -86 -63q-25 -55 -25 -152q0 -70 19 -123q27 -76 85 -76q54 0 83 76q25 65 25 159q0 77 -26 128t-75 51z" />
    <glyph glyph-name="icircumflex" unicode="&#x43e;" horiz-adv-x="574" 
d="M285 -14q-112 0 -182 65.5t-70 175.5q0 118 69 190t183 72q115 0 185.5 -64.5t70.5 -175.5q0 -115 -70 -189t-186 -74zM292 445q-57 0 -86 -63q-25 -55 -25 -152q0 -70 19 -123q27 -76 85 -76q54 0 83 76q25 65 25 159q0 77 -26 128t-75 51z" />
    <glyph glyph-name="idieresis" unicode="&#xef;" horiz-adv-x="556" 
d="M282 478l218 1v-483q-11 0 -38.5 2t-30.5 2q-17 0 -26 -0.5t-43 -3.5v425h-168v-425q-11 0 -38.5 2t-30.5 2q-17 0 -26 -0.5t-43 -3.5v483z" />
    <glyph glyph-name="idieresis" unicode="&#x43f;" horiz-adv-x="556" 
d="M282 478l218 1v-483q-11 0 -38.5 2t-30.5 2q-17 0 -26 -0.5t-43 -3.5v425h-168v-425q-11 0 -38.5 2t-30.5 2q-17 0 -26 -0.5t-43 -3.5v483z" />
    <glyph glyph-name="eth" unicode="&#xf0;" horiz-adv-x="556" 
d="M56 -259v738q11 0 37.5 -2t29.5 -2q11 0 33 2t33 2v-87q18 45 52.5 71t83.5 26q101 0 153 -74q45 -64 45 -169q0 -127 -61 -197q-55 -63 -139 -63q-47 0 -77.5 19.5t-51.5 52.5v-317q-38 5 -69 5t-69 -5zM282 51q46 5 69.5 54t23.5 130q0 91 -20 140.5t-67 49.5
q-57 0 -81 -73q-16 -49 -16 -122q0 -69 14 -112q22 -67 77 -67z" />
    <glyph glyph-name="eth" unicode="&#x440;" horiz-adv-x="556" 
d="M56 -259v738q11 0 37.5 -2t29.5 -2q11 0 33 2t33 2v-87q18 45 52.5 71t83.5 26q101 0 153 -74q45 -64 45 -169q0 -127 -61 -197q-55 -63 -139 -63q-47 0 -77.5 19.5t-51.5 52.5v-317q-38 5 -69 5t-69 -5zM282 51q46 5 69.5 54t23.5 130q0 91 -20 140.5t-67 49.5
q-57 0 -81 -73q-16 -49 -16 -122q0 -69 14 -112q22 -67 77 -67z" />
    <glyph glyph-name="ntilde" unicode="&#xf1;" horiz-adv-x="481" 
d="M466 445l-38 -104h-23q-6 45 -31 73q-28 31 -72 31q-63 0 -96 -70q-26 -55 -26 -128q0 -94 36 -145t115 -51q30 0 58.5 12.5t46.5 34.5l17 -14l-25 -59q-18 -18 -60.5 -28.5t-73.5 -10.5q-119 0 -189 62q-73 65 -73 180q0 120 71.5 190.5t191.5 70.5q46 0 91 -10.5
t80 -33.5z" />
    <glyph glyph-name="ntilde" unicode="&#x441;" horiz-adv-x="481" 
d="M466 445l-38 -104h-23q-6 45 -31 73q-28 31 -72 31q-63 0 -96 -70q-26 -55 -26 -128q0 -94 36 -145t115 -51q30 0 58.5 12.5t46.5 34.5l17 -14l-25 -59q-18 -18 -60.5 -28.5t-73.5 -10.5q-119 0 -189 62q-73 65 -73 180q0 120 71.5 190.5t191.5 70.5q46 0 91 -10.5
t80 -33.5z" />
    <glyph glyph-name="ograve" unicode="&#xf2;" horiz-adv-x="444" 
d="M445 412q-39 4 -66 6.5t-88 2.5v-425q-11 0 -38.5 2t-30.5 2q-11 0 -39 -2t-30 -2v425q-67 0 -90 -2q-34 -5 -63 -7q0 6 2.5 19t2.5 15q0 7 -2.5 19.5t-2.5 13.5h222h223q0 -6 -2.5 -18.5t-2.5 -14.5q0 -7 2.5 -19.5t2.5 -14.5z" />
    <glyph glyph-name="ograve" unicode="&#x442;" horiz-adv-x="444" 
d="M445 412q-39 4 -66 6.5t-88 2.5v-425q-11 0 -38.5 2t-30.5 2q-11 0 -39 -2t-30 -2v425q-67 0 -90 -2q-34 -5 -63 -7q0 6 2.5 19t2.5 15q0 7 -2.5 19.5t-2.5 13.5h222h223q0 -6 -2.5 -18.5t-2.5 -14.5q0 -7 2.5 -19.5t2.5 -14.5z" />
    <glyph glyph-name="oacute" unicode="&#xf3;" horiz-adv-x="500" 
d="M94 -259l127 258l-202 480q11 0 37 -2t39 -2t38 2t38 2q20 -56 43 -117q28 -74 77 -193l38 102l76 208l41 -2l41 2l-101 -228q-63 -145 -108 -253q-51 -123 -100 -257q-15 3 -31 3h-11h-20.5t-21.5 -3z" />
    <glyph glyph-name="oacute" unicode="&#x443;" horiz-adv-x="500" 
d="M94 -259l127 258l-202 480q11 0 37 -2t39 -2t38 2t38 2q20 -56 43 -117q28 -74 77 -193l38 102l76 208l41 -2l41 2l-101 -228q-63 -145 -108 -253q-51 -123 -100 -257q-15 3 -31 3h-11h-20.5t-21.5 -3z" />
    <glyph glyph-name="ocircumflex" unicode="&#xf4;" horiz-adv-x="833" 
d="M350 754q13 -2 31.5 -3t35.5 -1h41q17 3 25 4v-324q41 59 116 59q101 0 153 -74q45 -64 45 -169q0 -127 -61 -197q-55 -63 -139 -63q-37 0 -65.5 14t-48.5 37v-296q-16 2 -23 2q-32 3 -41 3q-31 0 -69 -5v296q-20 -24 -47.5 -37.5t-66.5 -13.5q-85 0 -139 62
q-61 70 -61 198q0 106 44 169q52 74 154 74q75 0 116 -59v324zM350 358q-12 32 -29 48q-20 19 -50 19q-47 0 -67 -49t-20 -141q0 -83 23 -131t70 -53q27 0 44.5 15t28.5 40v252zM562 425q-29 0 -48.5 -18.5t-30.5 -48.5v-252q11 -25 28.5 -40t44.5 -15q46 5 69.5 54
t23.5 130q0 91 -20 140.5t-67 49.5z" />
    <glyph glyph-name="ocircumflex" unicode="&#x444;" horiz-adv-x="833" 
d="M350 754q13 -2 31.5 -3t35.5 -1h41q17 3 25 4v-324q41 59 116 59q101 0 153 -74q45 -64 45 -169q0 -127 -61 -197q-55 -63 -139 -63q-37 0 -65.5 14t-48.5 37v-296q-16 2 -23 2q-32 3 -41 3q-31 0 -69 -5v296q-20 -24 -47.5 -37.5t-66.5 -13.5q-85 0 -139 62
q-61 70 -61 198q0 106 44 169q52 74 154 74q75 0 116 -59v324zM350 358q-12 32 -29 48q-20 19 -50 19q-47 0 -67 -49t-20 -141q0 -83 23 -131t70 -53q27 0 44.5 15t28.5 40v252zM562 425q-29 0 -48.5 -18.5t-30.5 -48.5v-252q11 -25 28.5 -40t44.5 -15q46 5 69.5 54
t23.5 130q0 91 -20 140.5t-67 49.5z" />
    <glyph glyph-name="otilde" unicode="&#xf5;" horiz-adv-x="500" 
d="M312 -4l-96 173q-13 -20 -55 -84q-37 -57 -56 -88l-40 3l-40 -3l159 221q-39 69 -75 129q-24 40 -80 132q14 0 46 -2t35 -2q14 0 47.5 2t34.5 2q32 -57 42 -77q27 -51 44 -79q51 71 104 156l45 -2l44 2q-41 -49 -103 -129q-52 -67 -59 -76l54 -95q56 -92 112 -183
q-14 0 -46.5 2t-36.5 2q-13 0 -45 -2t-35 -2z" />
    <glyph glyph-name="otilde" unicode="&#x445;" horiz-adv-x="500" 
d="M312 -4l-96 173q-13 -20 -55 -84q-37 -57 -56 -88l-40 3l-40 -3l159 221q-39 69 -75 129q-24 40 -80 132q14 0 46 -2t35 -2q14 0 47.5 2t34.5 2q32 -57 42 -77q27 -51 44 -79q51 71 104 156l45 -2l44 2q-41 -49 -103 -129q-52 -67 -59 -76l54 -95q56 -92 112 -183
q-14 0 -46.5 2t-36.5 2q-13 0 -45 -2t-35 -2z" />
    <glyph glyph-name="odieresis" unicode="&#xf6;" horiz-adv-x="556" 
d="M500 479v-421h51q-2 -8 -3.5 -18.5t-1.5 -24.5q0 -12 1 -23.5t4 -20.5h-10q-19 21 -54 25t-127 4q-261 0 -304 -4v483q12 -2 34.5 -3t34.5 -1h18h27l24 4v-421h168v421q27 -4 69 -4h43q19 3 26 4z" />
    <glyph glyph-name="odieresis" unicode="&#x446;" horiz-adv-x="556" 
d="M500 479v-421h51q-2 -8 -3.5 -18.5t-1.5 -24.5q0 -12 1 -23.5t4 -20.5h-10q-19 21 -54 25t-127 4q-261 0 -304 -4v483q12 -2 34.5 -3t34.5 -1h18h27l24 4v-421h168v421q27 -4 69 -4h43q19 3 26 4z" />
    <glyph glyph-name="divide" unicode="&#xf7;" horiz-adv-x="519" 
d="M177 479v-179q0 -27 18.5 -40t47.5 -13q23 0 44.5 9.5t37.5 23.5v199q29 -3 38.5 -3.5t30.5 -0.5q29 0 43 1q18 3 26 3v-483q-11 0 -38.5 2t-30.5 2q-17 0 -26 -0.5t-43 -3.5v223q-34 -18 -70 -27.5t-85 -9.5q-51 0 -91 34t-40 83v180q29 -2 43 -3t26 -1q29 0 43 1
q18 3 26 3z" />
    <glyph glyph-name="divide" unicode="&#x447;" horiz-adv-x="519" 
d="M177 479v-179q0 -27 18.5 -40t47.5 -13q23 0 44.5 9.5t37.5 23.5v199q29 -3 38.5 -3.5t30.5 -0.5q29 0 43 1q18 3 26 3v-483q-11 0 -38.5 2t-30.5 2q-17 0 -26 -0.5t-43 -3.5v223q-34 -18 -70 -27.5t-85 -9.5q-51 0 -91 34t-40 83v180q29 -2 43 -3t26 -1q29 0 43 1
q18 3 26 3z" />
    <glyph glyph-name="oslash" unicode="&#xf8;" horiz-adv-x="722" 
d="M666 -4q-9 0 -115 2t-190 2q-77 0 -151.5 -1t-153.5 -3v483q12 -2 34.5 -3t34.5 -1h18h27l24 4v-421h98v421q11 -2 34 -3t35 -1h18h27l24 4v-421h98v421q13 -2 32 -3t37 -1h43q19 3 26 4v-483z" />
    <glyph glyph-name="oslash" unicode="&#x448;" horiz-adv-x="722" 
d="M666 -4q-9 0 -115 2t-190 2q-77 0 -151.5 -1t-153.5 -3v483q12 -2 34.5 -3t34.5 -1h18h27l24 4v-421h98v421q11 -2 34 -3t35 -1h18h27l24 4v-421h98v421q13 -2 32 -3t37 -1h43q19 3 26 4v-483z" />
    <glyph glyph-name="ugrave" unicode="&#xf9;" horiz-adv-x="722" 
d="M666 479v-421h51q-2 -8 -3.5 -18.5t-1.5 -24.5q0 -12 1 -23.5t4 -20.5h-10q-22 24 -68.5 26.5t-141.5 2.5h-136q-95 0 -182.5 -0.5t-122.5 -3.5v483q12 -2 34.5 -3t34.5 -1h18h27l24 4v-421h98v421q11 -2 34 -3t35 -1h18h27l24 4v-421h98v421q27 -4 69 -4h43q19 3 26 4z
" />
    <glyph glyph-name="ugrave" unicode="&#x449;" horiz-adv-x="722" 
d="M666 479v-421h51q-2 -8 -3.5 -18.5t-1.5 -24.5q0 -12 1 -23.5t4 -20.5h-10q-22 24 -68.5 26.5t-141.5 2.5h-136q-95 0 -182.5 -0.5t-122.5 -3.5v483q12 -2 34.5 -3t34.5 -1h18h27l24 4v-421h98v421q11 -2 34 -3t35 -1h18h27l24 4v-421h98v421q27 -4 69 -4h43q19 3 26 4z
" />
    <glyph glyph-name="uacute" unicode="&#xfa;" horiz-adv-x="500" 
d="M-4 479h234v-203h87q73 0 117 -33q49 -37 49 -105q0 -60 -53 -99t-122 -39h-216v421q-31 0 -49 -2t-47 -7q4 12 4 34q0 20 -4 33zM230 236v-194h16q37 0 63 23q31 27 31 73q0 51 -25.5 74.5t-65.5 23.5h-19z" />
    <glyph glyph-name="uacute" unicode="&#x44a;" horiz-adv-x="500" 
d="M-4 479h234v-203h87q73 0 117 -33q49 -37 49 -105q0 -60 -53 -99t-122 -39h-216v421q-31 0 -49 -2t-47 -7q4 12 4 34q0 20 -4 33zM230 236v-194h16q37 0 63 23q31 27 31 73q0 51 -25.5 74.5t-65.5 23.5h-19z" />
    <glyph glyph-name="ucircumflex" unicode="&#xfb;" horiz-adv-x="704" 
d="M510 -4v483q11 0 38.5 -2t30.5 -2q11 0 39 2t30 2v-483q-11 0 -38.5 2t-30.5 2q-11 0 -39 -2t-30 -2zM194 236v-194h16q37 0 63 23q31 27 31 73q0 51 -25.5 74.5t-65.5 23.5h-19zM56 0v479l70 -3l68 3v-203h87q73 0 117 -33q49 -37 49 -105q0 -60 -53 -99t-122 -39h-216z
" />
    <glyph glyph-name="ucircumflex" unicode="&#x44b;" horiz-adv-x="704" 
d="M510 -4v483q11 0 38.5 -2t30.5 -2q11 0 39 2t30 2v-483q-11 0 -38.5 2t-30.5 2q-11 0 -39 -2t-30 -2zM194 236v-194h16q37 0 63 23q31 27 31 73q0 51 -25.5 74.5t-65.5 23.5h-19zM56 0v479l70 -3l68 3v-203h87q73 0 117 -33q49 -37 49 -105q0 -60 -53 -99t-122 -39h-216z
" />
    <glyph glyph-name="udieresis" unicode="&#xfc;" horiz-adv-x="463" 
d="M194 236v-194h16q37 0 63 23q31 27 31 73q0 51 -25.5 74.5t-65.5 23.5h-19zM56 0v479l70 -3l68 3v-203h87q73 0 117 -33q49 -37 49 -105q0 -60 -53 -99t-122 -39h-216z" />
    <glyph glyph-name="udieresis" unicode="&#x44c;" horiz-adv-x="463" 
d="M194 236v-194h16q37 0 63 23q31 27 31 73q0 51 -25.5 74.5t-65.5 23.5h-19zM56 0v479l70 -3l68 3v-203h87q73 0 117 -33q49 -37 49 -105q0 -60 -53 -99t-122 -39h-216z" />
    <glyph glyph-name="yacute" unicode="&#xfd;" horiz-adv-x="481" 
d="M147 280q33 -5 82 -5.5t71 -1.5q0 65 -29 114q-34 58 -92 58q-43 0 -70 -30t-33 -74h-23l-38 104q32 21 80 32.5t91 11.5q120 0 191.5 -70.5t71.5 -190.5q0 -114 -72 -178t-190 -64q-36 0 -75 11q-51 14 -83 44l-1 43l17 14q17 -21 46.5 -34t58.5 -13q74 0 112.5 46.5
t38.5 128.5q-35 -1 -76 -2t-78 -5v61z" />
    <glyph glyph-name="yacute" unicode="&#x44d;" horiz-adv-x="481" 
d="M147 280q33 -5 82 -5.5t71 -1.5q0 65 -29 114q-34 58 -92 58q-43 0 -70 -30t-33 -74h-23l-38 104q32 21 80 32.5t91 11.5q120 0 191.5 -70.5t71.5 -190.5q0 -114 -72 -178t-190 -64q-36 0 -75 11q-51 14 -83 44l-1 43l17 14q17 -21 46.5 -34t58.5 -13q74 0 112.5 46.5
t38.5 128.5q-35 -1 -76 -2t-78 -5v61z" />
    <glyph glyph-name="thorn" unicode="&#xfe;" horiz-adv-x="778" 
d="M194 280h70q13 96 76.5 152.5t160.5 56.5q111 0 177.5 -64.5t66.5 -175.5q0 -117 -63 -188q-66 -75 -181 -75q-108 0 -174 63t-66 170h-67v-223q-11 0 -38.5 2t-30.5 2q-11 0 -39 -2t-30 -2v483q11 0 38.5 -2t30.5 -2q11 0 39 2t30 2v-199zM508 445q-53 0 -78 -63
q-21 -53 -21 -152q0 -78 13 -123q22 -76 79 -76q54 0 77 70q19 57 19 165q0 79 -21 126q-24 53 -68 53z" />
    <glyph glyph-name="thorn" unicode="&#x44e;" horiz-adv-x="778" 
d="M194 280h70q13 96 76.5 152.5t160.5 56.5q111 0 177.5 -64.5t66.5 -175.5q0 -117 -63 -188q-66 -75 -181 -75q-108 0 -174 63t-66 170h-67v-223q-11 0 -38.5 2t-30.5 2q-11 0 -39 -2t-30 -2v483q11 0 38.5 -2t30.5 -2q11 0 39 2t30 2v-199zM508 445q-53 0 -78 -63
q-21 -53 -21 -152q0 -78 13 -123q22 -76 79 -76q54 0 77 70q19 57 19 165q0 79 -21 126q-24 53 -68 53z" />
    <glyph glyph-name="ydieresis" unicode="&#xff;" horiz-adv-x="500" 
d="M91 0q-20 0 -42.5 -1t-41.5 -3q36 45 78 101q52 70 79 106q-47 8 -83 41q-47 42 -47 103q0 67 52 99.5t139 32.5h219v-483q-15 2 -32 3t-33 1q-18 0 -37 -1t-36 -3v203h-5q-23 -31 -62 -93q-35 -55 -69 -110q-18 2 -39 3t-40 1zM306 251v174h-31q-44 0 -72 -21.5
t-28 -60.5q0 -44 29.5 -68t70.5 -24h31z" />
    <glyph glyph-name="ydieresis" unicode="&#x44f;" horiz-adv-x="500" 
d="M91 0q-20 0 -42.5 -1t-41.5 -3q36 45 78 101q52 70 79 106q-47 8 -83 41q-47 42 -47 103q0 67 52 99.5t139 32.5h219v-483q-15 2 -32 3t-33 1q-18 0 -37 -1t-36 -3v203h-5q-23 -31 -62 -93q-35 -55 -69 -110q-18 2 -39 3t-40 1zM306 251v174h-31q-44 0 -72 -21.5
t-28 -60.5q0 -44 29.5 -68t70.5 -24h31z" />
    </font>
</defs>
</svg>
